2 сезон

iTunes

MVO

1

2 сезон

iTunes

iTunes

1 сезон

RePack

30

Новинка

ВАЖНО

ИГРА 18+

pack

RePack

MK11
pack

Легкие деньги

RePack

jed

RePack

fifa19

RePack

RDR2

RePack

NEED FOR SPEED™ PAYBACK

4 сезон

9 сезон

Бесстыжие 9 сезон

Все сериалы

все сериалы на PB.wtf

RePack

FAR CRY 5

Anonymous, добрый день, мы не успеваем собрать деньги на оплату серверов за декабрь и январь, помогите нам пожалуйста в это трудное время. В качестве благодарности мы отключим Вам всю рекламу на сайте (укажите свой ник в строку Ваше имя)!

×
  
Magnet ссылка

Плутовство / Wag the Dog (Барри Левинсон) [1997 г., драма, комедия, DVDRip, Пиратка] piratbit.org

Плутовство через торрент piratbit.org

Размер: 1.45 GB | Добавлен: 9 лет 5 мес. назад | Торрент скачан:14 раз
Скачать  

18-07-2011 05:44 Плутовство Скачать торрент  

Плутовство / Wag the Dog

Год выпуска: 1997
Страна: США
Жанр: драма, комедия
Продолжительность: 97 мин.
Перевод: Профессиональный (многоголосый, закадровый)
Тип релиза: Пиратка

Режиссер: Барри Левинсон
Продюссер: Майкл Де Лука, Роберт Де Ниро, Барри Левинсон
Сценарий: Ларри Бейнхарт, Хилари Хенкин, Дэвид Мэмет

Бюджет: $15 000 000
Премьера в мире: 17 декабря 1997

R
-Лицам до 17 лет обязательно присутствие взрослого
Мировой рейтинг IMDB 7.10 (38 841)


В ролях: Дастин Хоффман
Роберт Де Ниро
Энн Хеч
Денис Лири
Уилли Нельсон
Андреа Мартин
Кирстен Данст
Уильям Х. Мэйси
Джон Майкл Хиггинс
Сьюзи Плэксон

Описание: Чтобы отвлечь внимание общественности от сексуального скандала, связанного с президентом США, срочно вызывают специалиста по нештатным ситуациям Конрада Брина. Брин решает инсценировать небольшую войну и, в свою очередь, привлекает известного голливудского продюсера Стенли Мотса.Вдвоем они организуют шоу в мировом масштабе с истинно голливудским размахом! Ну не мог Стенли Мотс упустить этот редкий шанс удовлетворения своих профессиональных амбиций!

Качество: DVDRip
Формат: AVI
Аудио кодек:MPEG-4 Visual
Видео: 2 104 Kbps,704*392, 24.968 fps,MPEG-4
Аудио: 112 Kbps, 48.0 KHz, 2 channels, MPEG Audio
E:\ЗАГРУЗКА\Плутовство или хвост виляет собакой.mp4
General
Complete name : E:\ЗАГРУЗКА\Плутовство или хвост виляет собакой.mp4
Format : MPEG-4
Format profile : Base Media
Codec ID : isom
File size : 1.45 GiB
Duration : 1h 32mn
Overall bit rate : 2 232 Kbps
Encoded date : UTC 2008-12-24 12:39:12
Tagged date : UTC 2008-12-24 12:39:12
Video #1
ID : 1
Format : MPEG-4 Visual
Format profile : Simple@L3
Format settings, BVOP : No
Format settings, QPel : No
Format settings, GMC : No warppoints
Format settings, Matrix : Default (H.263)
Codec ID : 20
Duration : 1h 32mn
Bit rate mode : Variable
Bit rate : 2 104 Kbps
Maximum bit rate : 6 686 Kbps
Width : 704 pixels
Height : 392 pixels
Display aspect ratio : 16:9
Frame rate mode : Variable
Frame rate : 24.968 fps
Minimum frame rate : 0.362 fps
Maximum frame rate : 25.000 fps
Original frame rate : 25.000 fps
Resolution : 8 bits
Colorimetry : 4:2:0
Scan type : Progressive
Bits/(Pixel*Frame) : 0.305
Stream size : 1.37 GiB (94%)
Writing library : XviD 1.2.0.dev47 (UTC 2006-11-01)
Encoded date : UTC 2008-12-24 12:39:12
Tagged date : UTC 2008-12-24 12:50:25
Audio #2
ID : 2
Format : MPEG Audio
Format version : Version 1
Format profile : Layer 3
Format_Settings_Mode : Joint stereo
Format_Settings_ModeExtension : MS Stereo
Codec ID : 6B
Duration : 1h 32mn
Bit rate mode : Constant
Bit rate : 128 Kbps
Maximum bit rate : 132 Kbps
Channel(s) : 2 channels
Sampling rate : 48.0 KHz
Stream size : 85.1 MiB (6%)
Writing library : LAME3.98
Encoding settings : -m j -V 4 -q 2 -lowpass 17 -b 128
Encoded date : UTC 2008-12-24 12:49:44
Tagged date : UTC 2008-12-24 12:50:25




piratbit.org



Скачать Плутовство через торрент http://i25.fastpic.ru/big/2011/0718/ad/dfb9df8cfc30d18e12310033f36bf4ad.jpg Скачать фильм Плутовство через торрент бесплантно в хорошем качестве Описание: Чтобы отвлечь внимание общественности от сексуального скандала, связанного с президентом США, срочно вызывают специалиста ... 10 10 3
Info! Золотая раздача, скачанное не засчитывается.
Торрент: Зарегистрирован [2011-07-18 05:44] · скачан: 14 раз
Статус: √ проверено
Размер: 1.45 GB
Как cкачать? Как скачать Плутовство через торрент | UTorrent

% Раздел Тема Автор DL S | L
Фильмы (WEB-DL 720p, 1080p) [ 5.02 GB ] Плутовство / Хвост виляет собакой / Wag the Dog [1997 HDTVRip 720p] 2 x MVO AVO -Lexx- Скачать
1 | 0


Последний раз редактировалось: kiraa (2011-07-18 17:35), всего редактировалось 4 раз(а)

28-11-2019 20:33  

Отключить всю рекламу на сайте

18-07-2011 18:27 Плутовство Скачать торрент  

kiraa
Перезалейте постер не отображаеться: http://pb.wtf/goo.php?url=http://fastpic.ru/
Скриштоны не отвечают заявленому разрешению.
Вот так я думаю, пойдет Вы не против постера.piratbit.org



    Дорогой пользователь! Огромная просьба, поблагодарите релизера, оцените раздачу и оставьте свои комментарий, если Вы скачали Плутовство через торрент бесплатно! Внесите свою лепту в развитие PiratBit!
    Комментировать посты могут только пользователи прошедшие не сложную регистрацию
    Показать сообщения:    

    Плутовство через торрент
    Скачать бесплатно Плутовство
    Плутовство скачать торрент
    Плутовство смотреть онлайн
    Cкачать фильм Плутовство бесплатно
    Плутовство скачать торрент в хорошем качестве
    Плутовство смотреть онлайн бесплатно в хорошем качестве


    Вы не можете начинать темы
    Вы не можете отвечать на сообщения
    Вы не можете редактировать свои сообщения
    Вы не можете удалять свои сообщения
    Вы не можете голосовать в опросах
    Вы не можете прикреплять файлы к сообщениям
    Вы можете скачивать файлы