Ссылка на приватное зеркало нашего сайта всего за 1$. Внимание количество ограничено!!!

2 сезон

iTunes

iTunes

1

iTunes

iTunes

iTunes

WEBRip

iTunes

30
pack

Забери бонус

ВАЖНО

!!Акция!!

Alien_RageХит недели

RePack

RESIDENT EVIL 3: NEMESIS REMAKE

ИГРА 18+

pack

RePack

jed

!!Акция!!

Alien_Rage

RePack

fifa19

RePack

Assassins Creed: Odyssey

RePack

NEED FOR SPEED™ PAYBACK

4 сезон

9 сезон

Бесстыжие 9 сезон

Все сериалы

все сериалы на PB.wtf

RePack

FAR CRY 5
  

Звездная пыль / Stardust (Мэттью Вон) [2007 г., Фэнтези, мелодрама, приключения, семейный, HDDVDRip (720p)] piratbit.org

Звездная пыль через торрент piratbit.org

Размер: 2.16 GB | Добавлен: 9 лет 2 мес. назад | Торрент скачан:633 раза
Скачать  

18-07-2011 15:05 Звездная пыль Скачать торрент  

Звездная пыль / Stardust

Год выпуска: 2007
Страна: США | Великобритания
Жанр: Фэнтези, мелодрама, приключения, семейный
Продолжительность: 02:07:39
Перевод: Профессиональный (полное дублирование)
Субтитры: Russian, Ukrainian

Режиссер: Мэттью Вон

В ролях: Чарли Кокс, Клер Дэйнс, Мишель Пфайффер, Питер О`Тул, Роберт Де Ниро, Сиенна Миллер, Руперт Эверетт, Йен МакКеллен, Бимбо Харт, Алистер Макинтош, Дэвид Келли, Бен Барнс, Кейт Магован, Мелани Хилл, Генри Кавилл, Натаниель Паркер, Дэрби Хокер, Фрэнк Эллис

Описание: Маленькая английская деревенька отделена древней стеной от сверхъестественной параллельной вселенной, где царят магия и волшебство. Молодой Тристан Торн опрометчиво обещает самой красивой девушке деревни, что принесёт ей слетевшую с неба звезду, упавшую по ту сторону стены.

На своём пути по следам древних легенд Тристан встретит всесильного короля и его заговорщика-сына, могущественную ведьму, капитана пиратского корабля и хитроумного торговца, а также найдёт свою истинную любовь, ключ к пониманию своей сущности и судьбы, о которой он мог только мечтать.

Доп. информация:
Качество: HDDVDRip 720p
Формат: MKV
Видео кодек: H.26x
Аудио кодек: AC3
Видео: 1280x532, 2pass, 1975 Кбит/сек, 23,976 кадр/сек, AVC, x264, 2,40:1, 0.118 Бит/(Пиксели*Кадры)
Аудио: AC-3, 448 Кбит/сек, 6 канала(ов), 48,0 КГц
Релиз от: RG NOLIMITS-TEAM:

piratbit.org



Скачать Звездная пыль через торрент http://i24.fastpic.ru/big/2011/0718/60/5555101a5e6797f57f3dba4b6ed22760.png Скачать фильм Звездная пыль через торрент бесплантно в хорошем качестве Описание: Маленькая английская деревенька отделена древней стеной от сверхъестественной параллельной вселенной, где царят магия и ... 9.9 10 7
Info! Золотая раздача, скачанное не засчитывается.
Торрент: Зарегистрирован [2011-07-18 15:05] · скачан: 633 раз
Статус: √ проверено
Размер: 2.16 GB
Как cкачать? Как скачать Звездная пыль через торрент | qTorrent

% Раздел Тема Автор DL S | L
Фильмы (HD 720p, 1080p) (48-60 fps) [ 5.07 GB ] Звездная пыль / Stardust [2007 BDRip 720p [] 60fps от mimok mimok Скачать
1 | 0
Фильмы 2006-2008 [ 5.22 GB ] Звездная пыль / Stardust [2007 Исландия BDRip-AVC] DUB [Hi10P] _KaisiK_ Скачать
1 | 0
Фильмы 2006-2008 [ 2.74 GB ] Звездная пыль / Stardust [2007 HDRip лицензия] кэп Скачать
1 | 0
Фильмы 2006-2008 [ 2.18 GB ] Звёздная пыль / Stardust [2007 BDRip-AVC] rulya74 Скачать
1 | 0
Фильмы 2006-2008 [ 2.17 GB ] Звездная пыль / Stardust [2007 HDRip-AVC] DUB + Original + Sub IceDevil71 Скачать
1 | 0
Фильмы 2006-2008 [ 1.46 GB ] Звездная пыль / Stardust [2007 HDRip] Андрей1060 Скачать
1 | 0

28-11-2019 20:33  

Отключить всю рекламу на сайте

18-07-2011 15:11 Звездная пыль Скачать торрент  

Хороший фильм. Советую к просмотру. :declare:piratbit.org



18-07-2011 15:15 Звездная пыль Скачать торрент  

Если понравится, могу заливать достаточно много хороших фильмов. Просто у меня довольно большая коллекция, и тут на трекере многих фильмов нет...piratbit.org



18-07-2011 15:19 Звездная пыль Скачать торрент  

punisher626 писал(а):

Если понравится, могу заливать достаточно много хороших фильмов. Просто у меня довольно большая коллекция, и тут на трекере многих фильмов нет...

Фильм хороший. Но качество оставляет желать лучшего))piratbit.org



18-07-2011 15:29 Звездная пыль Скачать торрент  

DaRkY писал(а):

punisher626 писал(а):

Если понравится, могу заливать достаточно много хороших фильмов. Просто у меня довольно большая коллекция, и тут на трекере многих фильмов нет...

Фильм хороший. Но качество оставляет желать лучшего))

Поэтому не в разделе HD
С таким размером качество определенно на уровне)
Video
ID : 2
Format : AVC
Format/Info : Advanced Video Codec
Format profile : High@L4.1
Format settings, CABAC : Yes
Format settings, ReFrames : 6 frames
Muxing mode : Container profile=Unknown@4.1
Codec ID : V_MPEG4/ISO/AVC
Duration : 2h 7mn
Bit rate : 1 928 Kbps
Nominal bit rate : 1 975 Kbps
Width : 1 280 pixels
Height : 532 pixels
Display aspect ratio : 2.40:1
Original display aspect ratio : 2.40:1
Frame rate : 23.976 fps
Resolution : 8 bits
Colorimetry : 4:2:0
Scan type : Progressive
Bits/(Pixel*Frame) : 0.118
Stream size : 1.72 GiB (79%)
Title : Stardust.2007
Writing library : x264 core 115 r1995 c1e60b9
Encoding settings : cabac=1 / ref=6 / deblock=1:0:0 / analyse=0x3:0x113 / me=umh / subme=8 / psy=1 / psy_rd=1.00:0.00 / mixed_ref=1 / me_range=16 / chroma_me=1 / trellis=1 / 8x8dct=1 / cqm=0 / deadzone=21,11 / fast_pskip=1 / chroma_qp_offset=-2 / threads=6 / sliced_threads=0 / slices=4 / nr=0 / decimate=1 / interlaced=0 / bluray_compat=1 / constrained_intra=0 / bframes=3 / b_pyramid=0 / b_adapt=1 / b_bias=0 / direct=3 / weightb=1 / open_gop=0 / weightp=1 / keyint=24 / keyint_min=1 / scenecut=40 / intra_refresh=0 / rc_lookahead=24 / rc=2pass / mbtree=1 / bitrate=1975 / ratetol=1.0 / qcomp=0.60 / qpmin=0 / qpmax=69 / qpstep=4 / cplxblur=20.0 / qblur=0.5 / vbv_maxrate=15000 / vbv_bufsize=15000 / nal_hrd=vbr / ip_ratio=1.10 / aq=1:1.00
Language : English

Audio
ID : 1
Format : AC-3
Format/Info : Audio Coding 3
Codec ID : A_AC3
Duration : 2h 7mn
Bit rate mode : Constant
Bit rate : 448 Kbps
Channel(s) : 6 channels
Channel positions : Front: L C R, Surround: L R, LFE
Sampling rate : 48.0 KHz
Stream size : 409 MiB (18%)
Title : Дубляж
Language : Russian
piratbit.org



18-07-2011 16:46 Звездная пыль Скачать торрент  

не заливайте релизы от nolimits-team у них ужасные релизыpiratbit.org



18-07-2011 16:59 Звездная пыль Скачать торрент  

Zormeg писал(а):

не заливайте релизы от nolimits-team у них ужасные релизы

В спойлере сверху есть MediaInfo, судя по размер/качество ничего "ужасного" нет. Во всяком случае лично меня такой релиз абсолютно устраивает. Так что скажите, пожалуйста, чем у них ужасные релизы? Если просто такое предвзятое мнение, то смотрите сэмпл и MI, а на бездоказательные коменты даже отвечать не хочется. Я не защищаю никого, но хотелось бы более развернутое мнение по поводу "ужасности" (в том числе данного релиза, с данными настройками)
Если такого не имеется, то и флудить впустую как минимум глупо...piratbit.org





Последний раз редактировалось: punisher626 (2011-07-18 19:13), всего редактировалось 1 раз

18-07-2011 17:10 Звездная пыль Скачать торрент  

залей еще хороших фильмов за ранее спасpiratbit.org



    Дорогой пользователь! Огромная просьба, поблагодарите релизера, оцените раздачу и оставьте свои комментарий, если Вы скачали Звездная пыль через торрент бесплатно! Внесите свою лепту в развитие PiratBit!
    Комментировать посты могут только пользователи прошедшие не сложную регистрацию
    Показать сообщения:    

    Звездная пыль через торрент
    Скачать бесплатно Звездная пыль
    Звездная пыль скачать торрент
    Звездная пыль смотреть онлайн
    Cкачать фильм Звездная пыль бесплатно
    Звездная пыль скачать торрент в хорошем качестве
    Звездная пыль смотреть онлайн бесплатно в хорошем качестве


    Вы не можете начинать темы
    Вы не можете отвечать на сообщения
    Вы не можете редактировать свои сообщения
    Вы не можете удалять свои сообщения
    Вы не можете голосовать в опросах
    Вы не можете прикреплять файлы к сообщениям
    Вы можете скачивать файлы