Anonymous, добрый день, присоединяйтесь к нам в Telegram!, здесь всегда актуальный адрес сайта, оперативная поддержка и многое другое!

>

5.6

iTunes

7.4

iTunes

5.7

MVO

1

7.7

1 сезон

6.8

iTunes

7.3

1 сезон

13

6.7

1 сезон

8.3

RePack

30

ULTIMATE

pack

9.9

Лицензия

ВАЖНО

ИГРА 18+

pack

7.3

RePack

MK11

7.7

RePack

jed

7.8

RePack

fifa19

8.5

RePack

RDR2

RePack

NEED FOR SPEED™ PAYBACK

4 сезон

9 сезон

Бесстыжие 9 сезон

Все сериалы

все сериалы на PB.wtf

RePack

FAR CRY 5

Anonymous, добрый день, мы катастрофически не успеваем собрать деньги на оплату серверов, помогите нам пожалуйста 5,10,15р., для нас важна любая помощь . В качестве благодарности мы отключим Вам всю рекламу на сайте (укажите свой ник в строку Ваше имя)!

×
  
Magnet ссылка

Династия Кеннеди / The Kennedys / Серии 1-8 (8) (Джон Кассар) [2011 г., драма, исторический, WEB-DLRip] (NewStudio + BBC Saint-Petersburg) piratbit.org

Династия Кеннеди через торрент piratbit.org

Размер: 4.3 GB | Добавлен: 10 лет назад | Торрент скачан:18 раз
Смотреть онлайн Династия Кеннеди | Скачать    Ребята, помогите собрать деньги на оплату серверов!!!

18-07-2011 17:30 Династия Кеннеди Скачать торрент  

Династия Кеннеди / The Kennedys



Год выпуска: 2011
Страна: США, Канада (Reelz)
Жанр: драма, исторический
Продолжительность: ~ 00:44:00
Перевод: Профессиональный (многоголосый, закадровый) /BBC Saint-Petersburg


Режиссер: Джон Кассар
Продюссер: Джон Кассар, Стивен Крониш, David McKillop
Сценарий: Стивен Крониш, Джоэль Сарноу


В ролях: Грег Киннер, Бэрри Пеппер, Кэти Холмс, Том Уилкинсон, Ава Престон, Диана Хардкэсл, Джэйк Бил, Robbin MacDonald, Элиза Престон, Серж Уд и др.



Сюжет сериала строится вокруг семьи Кеннеди и событий, которые им довелось пережить в середине XX века.




Качество: WEB-DLRip
Формат: AVI
Видео кодек: XviD
Аудио кодек: MP3
Видео: 720*400 (1.80), 23.976 fps, XviD MPEG-4, ~1506 kbps, 0.22 bit/pixel
Аудио: 48 kHz, MPEG Layer 3, 2 ch, ~128 kbps / BBC Saint-Petersburg /
Аудио: 48 kHz, MPEG Layer 3, 2 ch, ~128 kbps / Оригинал /

General
Complete name : E:\the.kennedys.s01.webdl_NewStudio.TV\the.kennedys.s01e01.webdl_NewStudio.TV.avi
Format : AVI
Format/Info : Audio Video Interleave
File size : 550 MiB
Duration : 43mn 31s
Overall bit rate : 1 767 Kbps
Writing application : VirtualDubMod 1.5.10.2 (build 2542/release)
Writing library : VirtualDubMod build 2542/release

Video
ID : 0
Format : MPEG-4 Visual
Format profile : Advanced Simple@L5
Format settings, BVOP : Yes
Format settings, QPel : No
Format settings, GMC : No warppoints
Format settings, Matrix : Default (MPEG)
Codec ID : XVID
Codec ID/Hint : XviD
Duration : 43mn 31s
Bit rate : 1 503 Kbps
Width : 720 pixels
Height : 400 pixels
Display aspect ratio : 16:9
Frame rate : 23.976 fps
Resolution : 8 bits
Colorimetry : 4:2:0
Scan type : Progressive
Bits/(Pixel*Frame) : 0.218
Stream size : 468 MiB (85%)
Writing library : XviD 63

Audio #1
ID : 1
Format : MPEG Audio
Format version : Version 1
Format profile : Layer 3
Format_Settings_Mode : Joint stereo
Format_Settings_ModeExtension : MS Stereo
Codec ID : 55
Codec ID/Hint : MP3
Duration : 43mn 31s
Bit rate mode : Constant
Bit rate : 128 Kbps
Channel(s) : 2 channels
Sampling rate : 48.0 KHz
Stream size : 39.9 MiB (7%)
Alignment : Aligned on interleaves
Interleave, duration : 42 ms (1.00 video frame)
Interleave, preload duration : 504 ms

Audio #2
ID : 2
Format : MPEG Audio
Format version : Version 1
Format profile : Layer 3
Format_Settings_Mode : Joint stereo
Codec ID : 55
Codec ID/Hint : MP3
Duration : 43mn 31s
Bit rate mode : Variable
Bit rate : 119 Kbps
Minimum bit rate : 32.0 Kbps
Channel(s) : 2 channels
Sampling rate : 48.0 KHz
Stream size : 36.9 MiB (7%)
Alignment : Aligned on interleaves
Interleave, duration : 24 ms (0.58 video frame)
Interleave, preload duration : 174 ms
Writing library : LAME3.98r
Encoding settings : -m j -V 5 -q 0 -lowpass 16.5 --vbr-new -b 32
- 03.04.2011 01 - A Father's Great Expectations
- 03.04.2011 02 - Shared Victories, Private Struggles
- 05.04.2011 03 - Failed Invasion, Failed Fidelity
- 06.04.2011 04 - Broken Promises and Deadly Barriers
- 07.04.2011 05 - Moral Issues and Inner Turmoil
- 08.04.2011 06 - On the Brink of War
- 10.04.2011 07 - The Countdown to Tragedy
- 10.04.2011 08 - The Aftermath: A Family's Curse of Misfortune and Heartbreak

[th]http://s2. СПАМpiratbit.org



Скачать Династия Кеннеди через торрент http://s53.radikal.ru/i142/1107/f9/ea86c4fdafb5.jpg Скачать, смотреть онлайн Династия Кеннеди бесплантно в хорошем качестве В ролях: Грег Киннер, Бэрри Пеппер, Кэти Холмс, Том Уилкинсон, Ава Престон, Диана Хардкэсл, Джэйк Бил, Robbin MacDonald, Элиза Престон, ... 5 10 2
Info! Золотая раздача, скачанное не засчитывается.
Торрент: Зарегистрирован [2011-07-18 17:30] · скачан: 18 раз
Статус: √ проверено
Размер: 4.3 GB
Как cкачать? Как скачать Династия Кеннеди через торрент | UTorrent

28-11-2019 20:33  

Отключить всю рекламу на сайте

    Дорогой пользователь! Огромная просьба, поблагодарите релизера, оцените раздачу и оставьте свои комментарий, если Вы скачали Династия Кеннеди через торрент бесплатно!
    Комментировать посты могут только пользователи прошедшие не сложную регистрацию
    Показать сообщения:    

    Династия Кеннеди через торрент
    Скачать бесплатно Династия Кеннеди
    Династия Кеннеди скачать торрент
    Династия Кеннеди смотреть онлайн
    Cкачать фильм Династия Кеннеди бесплатно
    Династия Кеннеди скачать торрент в хорошем качестве
    Династия Кеннеди смотреть онлайн бесплатно в хорошем качестве


    Вы не можете начинать темы
    Вы не можете отвечать на сообщения
    Вы не можете редактировать свои сообщения
    Вы не можете удалять свои сообщения
    Вы не можете голосовать в опросах
    Вы не можете прикреплять файлы к сообщениям
    Вы можете скачивать файлы