Достать ножи: Стеклянная луковица

MVO

Добыча

Дубляж

Уэнсдэй

1 сезон

Тор

Дубляж

13 клиническая

1 сезон

Жестокая ночь

MVO

Одни из нас

1 сезон

Deluxe

pack

Рекомендуем

30

Пиратка

ВАЖНО

ВАЖНО

Ghostwire

Пиратка

jed

RePack

nioh2

RePack

RDR2

RePack

NEED FOR SPEED™ PAYBACK

RePack

скачать торрент

Кинопоиск HD

Острые козырьки 6 сезон

6 сезон

FAR CRY 6

RePack

скачать торрент

Лицензия

скачать торрент

MVO

1

1 сезон

скачать торрент

1 сезон

скачать торрент

Лицензия

  

Суррогаты / Surrogates (Джонатан Мостоу / Jonathan Mostow) [1080p] [2009 г., Боевик, фантастика, триллер, BD Remux]

Суррогаты через торрент piratbit.org

Размер: 18.51 GB | Добавлен: 11 лет назад | Торрент скачан:157 раз
Смотреть онлайн | Скачать | Поддержите нас   

23-07-2011 11:47 Суррогаты Скачать торрент  



Суррогаты / Surrogates
«Реален только ты»



Год выпуска: 2009
Страна: США
Жанр: Боевик, фантастика, триллер
Продолжительность: 01:28:36
Перевод: Профессиональный (полное дублирование)


Режиссер: Джонатан Мостоу
Продюссер: Макс Хандельман, Дэвид Хоберман, Тодд Либерман
Сценарий: Майкл Феррис, Джон Д. Бранкато, Роберт Вендитти


Бюджет: $80 000 000
Премьера в мире: 24 сентября 2009
Премьера в РФ: 24 сентября 2009, «BVSPR Disney»


В ролях: Брюс Уиллис, Рада Митчел, Розамунд Пайк, Борис Коджо, Джеймс Джинти, Джеймс Кромуэлл, Винг Рэймс, Джек Ноузуорти, Девин Рэтрей, Майкл Кудиц



Действие разворачивается в будущем, в 2057 году, — когда люди практически перестанут общаться между собой и полностью возложат эту функцию на плечи роботов-заменителей. Они сильнее, моложе, привлекательнее своих обладателей и даже могут быть другого пола. Но находится террорист, начинающий уничтожать идеальных андроидов. Полицейскому Харви Гриру предстоит узнать, какие причины движут злоумышленником, лишающим людей их марионеток, технически и физически совершенных.

6.20 (47 545)



Качество: BD Remux
Формат: MKV
Видео кодек: H.264
Аудио кодек: AC3, DTS-HD
Видео: 1920x1080, 25727 kbps, 23.976 fps
Аудио1: Русский AC3 5.1, 48 KHz, 384 kbps
Аудио2: Английский DTS-HD Master Audio 5.1, 48 KHz, 24 bit, 3705 kbps, Lossless (DTS Core: 5.1, 48 KHz, 24bit, 1536 kbps)
Аудио3: Английский AC3 2.0, 48 KHz, 192 kbps (комментарии режиссёра)
Субтитры: Русские (полные), русские (надписи и пр.), английские

Общее
Уникальный идентификатор : 252943991909877883833494745006576577285 (0xBE4B3DA6DA14DD50BDD1DDC0F6A92B05)
Полное имя : D:\торенты\cваты 4\Surrogates.2009.BD.Remux.1080p.h264.Rus.Eng.Commentary.mkv
Формат : Matroska
Версия формата : Version 2
Размер файла : 18,5 Гбайт
Продолжительность : 1 ч. 28 м.
Общий поток : 29,9 Мбит/сек
Дата кодирования : UTC 2010-01-23 12:51:24
Программа кодирования : mkvmerge v3.0.0 ('Hang up your Hang-Ups') built on Dec 12 2009 15:20:35
Библиотека кодирования : libebml v0.7.9 + libmatroska v0.8.1

Видео
Идентификатор : 1
Формат : AVC
Формат/Информация : Advanced Video Codec
Профиль формата : High@L4.1
Параметр CABAC формата : Да
Параметр ReFrames формата : 4 кадра
Режим смешивания : Container profile=Unknown@0.0
Идентификатор кодека : V_MPEG4/ISO/AVC
Продолжительность : 1 ч. 28 м.
Вид битрейта : Переменный
Битрейт : 27,2 Мбит/сек
Максимальный битрейт : 36,0 Мбит/сек
Ширина : 1920 пикс.
Высота : 1080 пикс.
Соотношение сторон : 16:9
Частота кадров : 23,976 кадр/сек
Цветовое пространство : YUV
Подвыборка цветности : 4:2:0
Битовая глубина : 8 бит
Тип развёртки : Прогрессивная
Бит/(Пиксели*Кадры) : 0.546
Размер потока : 16,8 Гбайт (91%)
Язык : English
Основные цвета : BT.709-5, BT.1361, IEC 61966-2-4, SMPTE RP177
Характеристики трансфера : BT.709-5, BT.1361
Коэффициенты матрицы : BT.709-5, BT.1361, IEC 61966-2-4 709, SMPTE RP177

Аудио #1
Идентификатор : 2
Формат : AC-3
Формат/Информация : Audio Coding 3
Расширение режима : CM (complete main)
Идентификатор кодека : A_AC3
Продолжительность : 1 ч. 28 м.
Вид битрейта : Постоянный
Битрейт : 384 Кбит/сек
Каналы : 6 каналов
Расположение каналов : Front: L C R, Side: L R, LFE
Частота : 48,0 КГц
Битовая глубина : 16 бит
Метод сжатия : С потерями
Размер потока : 243 Мбайт (1%)
Заголовок : AC3 5.1 384 kbps
Язык : Russian

Аудио #2
Идентификатор : 3
Формат : DTS
Формат/Информация : Digital Theater Systems
Профиль формата : MA / Core
Идентификатор кодека : A_DTS
Продолжительность : 1 ч. 28 м.
Вид битрейта : Переменный
Битрейт : 1576 Кбит/сек / 1510 Кбит/сек
Каналы : 6 каналов
Расположение каналов : Front: L C R, Side: L R, LFE
Частота : 48,0 КГц
Битовая глубина : 24 бит
Метод сжатия : Без потерь / Lossy
Заголовок : DTS-HD Master Audio, 5.1, 3705 kbps, 24 bit, Lossless (1536 kbps core)
Язык : English

Аудио #3
Идентификатор : 4
Формат : AC-3
Формат/Информация : Audio Coding 3
Расширение режима : CM (complete main)
Идентификатор кодека : A_AC3
Продолжительность : 1 ч. 28 м.
Вид битрейта : Постоянный
Битрейт : 192 Кбит/сек
Каналы : 2 канала
Расположение каналов : Front: L R
Частота : 48,0 КГц
Битовая глубина : 16 бит
Метод сжатия : С потерями
Размер потока : 122 Мбайт (1%)
Заголовок : Commentary with Director AC3 2.0 192 kbps
Язык : English

Текст #1
Идентификатор : 5
Формат : UTF-8
Идентификатор кодека : S_TEXT/UTF8
Идентификатор кодека/Информация : UTF-8 Plain Text
Язык : Russian

Текст #2
Идентификатор : 6
Формат : UTF-8
Идентификатор кодека : S_TEXT/UTF8
Идентификатор кодека/Информация : UTF-8 Plain Text
Язык : English

Текст #3
Идентификатор : 7
Формат : UTF-8
Идентификатор кодека : S_TEXT/UTF8
Идентификатор кодека/Информация : UTF-8 Plain Text
Заголовок : Tol'ko nadpisi
Язык : Russian

скриншот  скриншот  скриншот  скриншот  



Скачать Суррогаты через торрент http://i25.fastpic.ru/big/2011/0723/26/24d236f1b2bf9bd31b7bb7943dd3b026.png Скачать, смотреть онлайн Суррогаты бесплантно в хорошем качестве В ролях: Брюс Уиллис, Рада Митчел, Розамунд Пайк, Борис Коджо, Джеймс Джинти, Джеймс Кромуэлл, Винг Рэймс, Джек Ноузуорти, Девин Рэтрей, ... 10 10 1
Info! Золотая раздача, скачанное не засчитывается.
Торрент: Зарегистрирован [2011-07-23 11:47] · скачан: 157 раз
Статус: √ проверено
Размер: 18.51 GB
Как cкачать? Как скачать Суррогаты через торрент | UTorrent

% Раздел Тема Автор DL S | L
Фильмы [HD 720p, 1080p] (Хороший звук DUB, MVO) [ 8.23 GB ] Суррогаты / Surrogates | Лицензия | 1080p, Дублированный, Лицензия Seedtank Скачать
1 | 0

28-11-2019 20:33  


Отключить вcю реклaмy на сайте, в т.ч. и в плеере онлайн просмотра!

    Дорогой пользователь! Огромная просьба, поблагодарите релизера, оцените раздачу и оставьте свои комментарий, если Вы скачали Суррогаты через торрент бесплатно!!
    Комментировать посты могут только пользователи прошедшие не сложную регистрацию
    Показать сообщения:    


    Суррогаты через торрент
    Скачать бесплатно Суррогаты
    Суррогаты скачать торрент
    Суррогаты смотреть онлайн
    Cкачать фильм Суррогаты бесплатно
    Суррогаты скачать торрент в хорошем качестве
    Суррогаты смотреть онлайн бесплатно в хорошем качестве
    Вы не можете начинать темы
    Вы не можете отвечать на сообщения
    Вы не можете редактировать свои сообщения
    Вы не можете удалять свои сообщения
    Вы не можете голосовать в опросах
    Вы не можете прикреплять файлы к сообщениям
    Вы можете скачивать файлы
    Суррогаты / Surrogates [1080p] [2009 г., Боевик, фантастика, триллер, BD Remux] смотреть онлайн, скачать торрент picoco.icu