Ссылка на приватное зеркало нашего сайта всего за 1$. Внимание количество ограничено!!!

2 сезон

iTunes

iTunes

1

iTunes

iTunes

iTunes

WEBRip

iTunes

30
pack

Вам бонус

ВАЖНО

!!Акция!!

Alien_RageХит недели

RePack

Horizon Zero Dawn

ИГРА 18+

pack

RePack

jed

!!Акция!!

Alien_Rage

RePack

fifa19

RePack

Assassins Creed: Odyssey

RePack

NEED FOR SPEED™ PAYBACK

4 сезон

9 сезон

Бесстыжие 9 сезон

Все сериалы

все сериалы на PB.wtf

RePack

FAR CRY 5
  

На крючке / Eagle Eye / Орлиний зір (Д. Дж. Карузо / D.J. Caruso) [2008 г., Боевик, триллер, детектив, BDRip] piratbit.org

На крючке через торрент piratbit.org

Размер: 2 GB | Добавлен: 9 лет 2 мес. назад | Торрент скачан:130 раз
Скачать  

26-07-2011 14:05 На крючке Скачать торрент  

На крючке / Орлиний зір / Eagle Eye

Год выпуска: 2008
Страна: Германия, США
Жанр: Боевик, триллер, детектив
Продолжительность: 01:57:35
Перевод: Профессиональный (полное дублирование)UKR

Режиссер: Д. Дж. Карузо / D.J. Caruso

В ролях: Шайа ЛаБаф, Мишель Монахэн, Розарио Доусон, Билли Боб Торнтон, Майкл Чиклис, Энтони Маки, Этан Эмбри, Энтони Азизи, Камерон Бойс, Линн Коэн

Описание: Юный бездельник живет беззаботной жизнью, в отличие от своего брата-близнеца, стремящегося добиться успеха во всех сферах жизни, пока… тот не погибает при загадочных обстоятельствах. В то же время у матери-одиночки Рэйчел пропадает ребенок, и, вскоре, незнакомцы обнаруживают, что их подставили и выставили террористами. Насильно внедренные в группировку, планирующую серию убийств, они вынуждены вместе искать пути к спасению своей жизни.

Доп. информация: IMDB 6.7/10 28,548 votes
Kinopoisk: 8.193 (2576)

Семпл
Качество: BDRip
Формат: AVI
Видео кодек: XviD
Аудио кодек: AC3
Видео: 720x304 (2.37:1), 23.976 fps, XviD build 47 ~1974 kbps avg, 0.27 bit/pixel
Аудио: 48 kHz, AC3 Dolby Digital, 3/2 (L,C,R,l,r) + LFE ch, ~448.00 kbps avg UKR
General
Complete name : D:\Eagle.Eye.(2008).UKR.XviD.BDRip.avi
Format : AVI
Format/Info : Audio Video Interleave
File size : 2.00 GiB
Duration : 1h 57mn
Overall bit rate : 2 431 Kbps
Movie name : Eagle Eye (2008)
Director : SHARE|NET.UA
Writing application : VirtualDubMod 1.5.10.2 (build 2540/release)
Copyright : www.share.net.ua
Comment : Ukrainian

Video
ID : 0
Format : MPEG-4 Visual
Format profile : Advanced Simple@L5
Format settings, BVOP : Yes
Format settings, QPel : No
Format settings, GMC : No warppoints
Format settings, Matrix : Default (MPEG)
Muxing mode : Packed bitstream
Codec ID : XVID
Codec ID/Hint : XviD
Duration : 1h 57mn
Bit rate : 1 974 Kbps
Width : 720 pixels
Height : 324 pixels
Display aspect ratio : 2.222
Frame rate : 23.976 fps
Color space : YUV
Chroma subsampling : 4:2:0
Bit depth : 8 bits
Scan type : Progressive
Compression mode : Lossy
Bits/(Pixel*Frame) : 0.353
Stream size : 1.62 GiB (81%)
Writing library : XviD 1.2.0.dev47 (UTC 2006-11-01)

Audio
ID : 1
Format : AC-3
Format/Info : Audio Coding 3
Mode extension : CM (complete main)
Codec ID : 2000
Duration : 1h 57mn
Bit rate mode : Constant
Bit rate : 448 Kbps
Channel(s) : 6 channels
Channel positions : Front: L C R, Side: L R, LFE
Sampling rate : 48.0 KHz
Bit depth : 16 bits
Compression mode : Lossy
Stream size : 377 MiB (18%)
Alignment : Split accross interleaves
Interleave, duration : 42 ms (1.00 video frame)
Interleave, preload duration : 500 ms
[/code]
piratbit.org



Скачать На крючке через торрент http://i25.fastpic.ru/big/2011/0726/86/bd6755237f83bfd9e65b66a8969bca86.png Скачать фильм На крючке через торрент бесплантно в хорошем качестве Описание: Юный бездельник живет беззаботной жизнью, в отличие от своего брата-близнеца, стремящегося добиться успеха во всех сферах жизни, ... 4.8 10 13
Info! Золотая раздача, скачанное не засчитывается.
Торрент: Зарегистрирован [2011-07-26 14:05] · скачан: 130 раз
Статус: √ проверено
Размер: 2 GB
Как cкачать? Как скачать На крючке через торрент | qTorrent



Последний раз редактировалось: pro100shara (2011-07-26 14:56), всего редактировалось 3 раз(а)

28-11-2019 20:33  

Отключить всю рекламу на сайте

26-07-2011 14:17 На крючке Скачать торрент  

сэмпл добавьpiratbit.org



26-07-2011 15:16 На крючке Скачать торрент  

отличный фильмpiratbit.org



26-07-2011 16:08 На крючке Скачать торрент  

pro100shara это легкая реклама одноимённого сайта???


piratbit.org



26-07-2011 16:20 На крючке Скачать торрент  

нет это не реклама сайта !!!!piratbit.org



26-07-2011 17:49 На крючке Скачать торрент  

а разве фильмы на иностранных языках, не должны быть с русским переводом или хотя бы с субтитрами?piratbit.org



26-07-2011 18:26 На крючке Скачать торрент  

Фильм смотрел недавно по телеку. Раздрожала только реклама.
4+ из 5piratbit.org



    Дорогой пользователь! Огромная просьба, поблагодарите релизера, оцените раздачу и оставьте свои комментарий, если Вы скачали На крючке через торрент бесплатно! Внесите свою лепту в развитие PiratBit!
    Комментировать посты могут только пользователи прошедшие не сложную регистрацию
    Показать сообщения:    

    На крючке через торрент
    Скачать бесплатно На крючке
    На крючке скачать торрент
    На крючке смотреть онлайн
    Cкачать фильм На крючке бесплатно
    На крючке скачать торрент в хорошем качестве
    На крючке смотреть онлайн бесплатно в хорошем качестве


    Вы не можете начинать темы
    Вы не можете отвечать на сообщения
    Вы не можете редактировать свои сообщения
    Вы не можете удалять свои сообщения
    Вы не можете голосовать в опросах
    Вы не можете прикреплять файлы к сообщениям
    Вы можете скачивать файлы