Anonymous, доброй ночи, присоединяйтесь к нам в Telegram!, здесь всегда актуальный адрес сайта, оперативная поддержка и многое другое!

>

5.5

iTunes

7.4

iTunes

7.9

iTunes

1

7.7

1 сезон

6.8

iTunes

7.3

1 сезон

13

6.7

1 сезон

8.3

RePack

30

ULTIMATE

pack

9.9

Лицензия

ВАЖНО

ИГРА 18+

pack

7.3

RePack

MK11

7.7

RePack

jed

7.8

RePack

fifa19

8.5

RePack

RDR2

RePack

NEED FOR SPEED™ PAYBACK

4 сезон

9 сезон

Бесстыжие 9 сезон

Все сериалы

все сериалы на PB.wtf

RePack

FAR CRY 5

Anonymous, доброй ночи, мы катастрофически не успеваем собрать деньги на оплату серверов, помогите нам пожалуйста 5,10,15р., для нас важна любая помощь . В качестве благодарности мы отключим Вам всю рекламу на сайте (укажите свой ник в строку Ваше имя)!

×
  
Magnet ссылка

Дурнев+1 / выпуск 1-5 (?) (TET "Люмпены Продакшн") [2011., Антигламурный репортаж, SATRip] piratbit.org

Дурнев+1 через торрент piratbit.org

Размер: 1.71 GB | Добавлен: 10 лет назад | Торрент скачан:43 раза
Смотреть онлайн Дурнев+1 | Скачать    Ребята, помогите собрать деньги на оплату серверов!!!

29-07-2011 08:35 Дурнев+1 Скачать торрент  

Дурнев+1



Год выпуска: 2011
Страна: Украина
Жанр: Антигламурный репортаж
Продолжительность: 00:25:00
Перевод: оригинал (украинский)


Выпущено: ТК "TET"
Производство: "Люмпены Продакшн"


Ведущие:: Алексей Дурнев, Дарья Ши



Вы слышали о нем от друзей. Вы искали его в интернете и "лайкалы" на Facebook. Вы смеялись над его жертвами. Но сами не хотели бы попасть в его поле зрения на вечеринке. Он - Алексей Дурнев, скандальный видеоблоггер, который задаст летом на ТЕТ. О ПРОГРАММЕ: "Дурнев +1" - альтернативные "светские хроники!", Скандальный вызов тому, что считается модным среди тусовки. В этом шоу вы не услышите вопросов о состоянии, отдых и личную жизнь. Как и не увидите типичных гламурных ведущих с искусственными улыбками. Все гораздо парадоксальным! Известные персоны, постоянные посетители ярмарок тщеславия становятся жертвами ведущий-манипуляторов - Алексея Дурнева и Дарьи Ши! Герои тусовки краснеют, смущаются, делают длинные паузы, и закатывают глаза! Бессмысленные и абсурдные на первый взгляд вопрос - действительно провокация и эпатаж! Выставка кукол, сельскохозяйственной техники или ювелирный салон - на подобных мероприятиях вас ждет встреча с Алексеем Дурнева. Собрались на открытие ресторана, арт-презентацию или показ мод? Здесь за вами следит Дарья Ши. Не готовы к тонкого юмора и жесткого стеба - оглядывайтесь по сторонам и бегите! Мы открываем сезон охоты на мещанство и безвкусица!



Качество: SATRip
Формат: AVI
Видео кодек: XviD
Аудио кодек: MP3
Видео: XviD, 720x448, 25.00fps, ~1831 Кбит/сек
Аудио: MP3 , 48000Hz, stereo, 192 Кбит/сек

при каждом добавлении создётся новый торрент. Чтобы начать докачку новой серии, пользователям необходимо сделать следующее:

(1) остановить скачивание,
(2) удалить старый торрент у себя из клиента (старые серии удалять не надо),
(3) скачать новый торрент и запустить его у себя в клиенте вместо старого, при этом указать клиенту путь в старую папку куда и должно происходить скачивание новых серий.

Ваш клиент при этом должен произвести хеширование (проверку) старой папки (если не производит сам - помогите ему сделать это), и будет докачивать только те серии которых у вас ещё нет. Старые серии при этом не удаляются, а продолжают раздаваться!

Eсли вы уже удалили старые серии, то предотвратить повторную закачку старых серий можно, отжав галочку в соответсвующих местах при запуске нового торрента. По возможности, желательно не удалять старые серии как можно дольше чтобы релизёр не столько продолжал раздавать старые серии, а смог сконцентрироваться на новых.
Общее
Полное имя : D:\торенты\cваты 4\Дурнев +1\Durnev+1.Vypusk.01.2011.XviD.IPTVRip.by.simkanetua.avi
Формат : AVI
Формат/Информация : Audio Video Interleave
Размер файла : 350 Мбайт
Продолжительность : 24 м.
Общий поток : 2033 Кбит/сек
Программа кодирования : VirtualDubModRus 1.5.10.2 (build 2542/release)
Библиотека кодирования : VirtualDubMod build 2542/release

Видео
Идентификатор : 0
Формат : MPEG-4 Visual
Профиль формата : Simple@L1
Параметр BVOP формата : Нет
Параметр QPel формата : Нет
Параметр GMC формата : Без точки перехода
Параметр матрицы формата : Default (H.263)
Идентификатор кодека : XVID
Идентификатор кодека/Подсказка : XviD
Продолжительность : 24 м.
Битрейт : 1831 Кбит/сек
Ширина : 720 пикс.
Высота : 448 пикс.
Соотношение сторон : 1,607
Частота кадров : 25,000 кадр/сек
Цветовое пространство : YUV
Подвыборка цветности : 4:2:0
Битовая глубина : 8 бит
Тип развёртки : Прогрессивная
Метод сжатия : С потерями
Бит/(Пиксели*Кадры) : 0.227
Размер потока : 315 Мбайт (90%)
Библиотека кодирования : Lavc52.94.4

Аудио
Идентификатор : 1
Формат : MPEG Audio
Версия формата : Version 1
Профиль формата : Layer 3
Идентификатор кодека : 55
Идентификатор кодека/Подсказка : MP3
Продолжительность : 24 м.
Вид битрейта : Постоянный
Битрейт : 192 Кбит/сек
Каналы : 1 канал
Частота : 48,0 КГц
Метод сжатия : С потерями
Размер потока : 33,0 Мбайт (9%)
Выравнивание : Разделение по промежуткам
Продолжительность промежутка : 40 мс. (1,00 видеокадр)
Время предзагрузки промежутка : 500 ms
Библиотека кодирования : LAME3.98.2
скриншот  скриншот  скриншот  скриншот  скриншот  piratbit.org



Скачать Дурнев+1 через торрент http://s49.radikal.ru/i123/1107/44/f540e3cd08c8.jpg Скачать, смотреть онлайн Дурнев+1 бесплантно в хорошем качестве Год выпуска: 2011Страна: УкраинаЖанр: Антигламурный репортажПродолжительность: 00:25:00Перевод: оригинал (украинский) Выпущено: ТК ... 3.8 10 5
Info! Золотая раздача, скачанное не засчитывается.
Торрент: Зарегистрирован [2011-07-29 08:35] · скачан: 43 раз
Статус: √ проверено
Размер: 1.71 GB
Как cкачать? Как скачать Дурнев+1 через торрент | UTorrent



Последний раз редактировалось: NarutoSasuke (2011-07-29 17:13), всего редактировалось 3 раз(а)

28-11-2019 20:33  

Отключить всю рекламу на сайте

29-07-2011 11:19 Дурнев+1 Скачать торрент  

если вы сыми писали это описание - садитесь, 2а!piratbit.org



29-07-2011 12:25 Дурнев+1 Скачать торрент  

бред.piratbit.org



29-07-2011 12:27 Дурнев+1 Скачать торрент  

породия тупейшей передачи "Зайцев+1"piratbit.org



29-07-2011 16:29 Дурнев+1 Скачать торрент  

NarutoSasuke
Постер, скриншоты не кликабельны. Перезалей на другой фотохостинг. Что значит перевод не требуется? Ты выкладываешь в иностранные сериалы. Укажи Перевод: оригинал(русский или украинский)piratbit.org



31-07-2011 08:01 Дурнев+1 Скачать торрент  

спсpiratbit.org



09-08-2011 08:11 Дурнев+1 Скачать торрент  

Але, гараж! Сиды в студию, плз!!!! piratbit.org



22-08-2011 16:17 Дурнев+1 Скачать торрент  

далбаибаны с письмошной взяли всёpiratbit.org



    Дорогой пользователь! Огромная просьба, поблагодарите релизера, оцените раздачу и оставьте свои комментарий, если Вы скачали Дурнев+1 через торрент бесплатно!
    Комментировать посты могут только пользователи прошедшие не сложную регистрацию
    Показать сообщения:    

    Дурнев+1 через торрент
    Скачать бесплатно Дурнев+1
    Дурнев+1 скачать торрент
    Дурнев+1 смотреть онлайн
    Cкачать фильм Дурнев+1 бесплатно
    Дурнев+1 скачать торрент в хорошем качестве
    Дурнев+1 смотреть онлайн бесплатно в хорошем качестве


    Вы не можете начинать темы
    Вы не можете отвечать на сообщения
    Вы не можете редактировать свои сообщения
    Вы не можете удалять свои сообщения
    Вы не можете голосовать в опросах
    Вы не можете прикреплять файлы к сообщениям
    Вы можете скачивать файлы