1 сезон

3 сезон

iTunes

1

iTunes

MVO

iTunes

13

1 сезон

RePack

30

Deluxe

pack

Лицензия

ВАЖНО

ИГРА 18+

pack

RePack

MK11

RePack

jed

RePack

fifa19

RePack

RDR2

RePack

NEED FOR SPEED™ PAYBACK

4 сезон

9 сезон

Бесстыжие 9 сезон

Все сериалы

все сериалы на PB.wtf

RePack

FAR CRY 5

Anonymous, добрый вечер, мы катастрофически не успеваем собрать деньги на оплату серверов, помогите нам пожалуйста 5,10,15р., для нас важна любая помощь . В качестве благодарности мы отключим Вам всю рекламу на сайте (укажите свой ник в строку Ваше имя)!

×
  
Magnet ссылка

Али / Ali (Майкл Манн / Michael Mann) [2001 г., драма, биография, спорт, HDRip] piratbit.org

Али через торрент piratbit.org

Размер: 1.46 GB | Добавлен: 9 лет назад | Торрент скачан:938 раз
Скачать  

30-07-2011 12:17 Али Скачать торрент  

Али / Ali« Ты уверен, что всё знаешь о нем!... »


Год выпуска: 2001
Страна: США
Жанр: драма, биография, спорт
Продолжительность: 02:36:35
Перевод: Профессиональный (дублированный)


Режиссер: Майкл Манн
Продюссер: Пол Ардажи, А. Китман Хо, Джеймс Ласситер
Сценарий: Грегори Аллен Ховард, Стефен Дж. Ривел, Кристофер Уилкинсон


бюджет: $107 000 000
Премьера в мире: 11 декабря 2001


В ролях: Уилл Смит, Джейми Фокс, Джон Войт, Марио Ван Пиблз, Рон Сильвер, Джеффри Райт, Майкелти Уильямсон, Джада Пинкетт Смит, Нона Гей, Майкл Мишель



Непобедимый боксер Мухаммед Али является великим героем Америки, кумиром всего мира, и в то же время, одной из самых недооцененных персон XX века. Борясь за гражданские права в родной стране в сложные, бурные годы, когда громкие политические и социальные события коренным образом меняли мировоззрения людей, Али защищал угнетенных и дарил людям новую надежду. История сделала его живой легендой, и теперь вряд ли найдется на планете хоть один человек, который не слышал гордое имя Али.




Качество: HDRip (Исходник - BDRip 1080p)
Формат: AVI
Видео кодек: XviD
Аудио кодек: AC3
Видео: 720x304, 23.976 fps, 1135 kbps, 0.22 b/p
Аудио: 48000 Hz, 2-channel, 192 kbps



Общее
Полное имя : D:\торенты\1\Ali_[torrents.ru].avi
Формат : AVI
Формат/Информация : Audio Video Interleave
Размер файла : 1,46 Гбайт
Продолжительность : 2 ч. 36 м.
Общий поток : 1337 Кбит/сек
Название фильма : Ali 2001
Режиссёр : Petey [torrents.ru]
Жанр : Sports
Программа кодирования : VirtualDubMod 1.5.10.2 (build 2540/release)
Формат оригинала/Имя : Movie

Видео
Идентификатор : 0
Формат : MPEG-4 Visual
Профиль формата : Advanced Simple@L5
Параметр BVOP формата : 1
Параметр QPel формата : Нет
Параметр GMC формата : Без точки перехода
Параметр матрицы формата : Выборочная
Идентификатор кодека : XVID
Идентификатор кодека/Подсказка : XviD
Продолжительность : 2 ч. 36 м.
Битрейт : 1135 Кбит/сек
Ширина : 720 пикс.
Высота : 304 пикс.
Соотношение сторон : 2,35:1
Частота кадров : 23,976 кадр/сек
Цветовое пространство : YUV
Подвыборка цветности : 4:2:0
Битовая глубина : 8 бит
Тип развёртки : Прогрессивная
Метод сжатия : С потерями
Бит/(Пиксели*Кадры) : 0.216
Размер потока : 1,24 Гбайт (85%)
Библиотека кодирования : XviD 1.2.1 (UTC 2008-12-04)

Аудио
Идентификатор : 1
Формат : AC-3
Формат/Информация : Audio Coding 3
Расширение режима : CM (complete main)
Идентификатор кодека : 2000
Продолжительность : 2 ч. 36 м.
Вид битрейта : Постоянный
Битрейт : 192 Кбит/сек
Каналы : 2 канала
Расположение каналов : Front: L R
Частота : 48,0 КГц
Битовая глубина : 16 бит
Метод сжатия : С потерями
Размер потока : 215 Мбайт (14%)
Выравнивание : Разделение по промежуткам
Продолжительность промежутка : 42 мс. (1,00 видеокадр)
Время предзагрузки промежутка : 500 ms
скриншот  скриншот  скриншот  скриншот  скриншот  piratbit.org



Скачать Али через торрент http://i26.fastpic.ru/big/2011/0730/76/1ceca149d029649ed2d9ddc41e14df76.jpg Скачать фильм Али через торрент бесплантно в хорошем качестве В ролях: Уилл Смит, Джейми Фокс, Джон Войт, Марио Ван Пиблз, Рон Сильвер, Джеффри Райт, Майкелти Уильямсон, Джада Пинкетт Смит, Нона Гей, ... 9.9 10 9
Info! Золотая раздача, скачанное не засчитывается.
Торрент: Зарегистрирован [2011-07-30 12:17] · скачан: 938 раз
Статус: √ проверено
Размер: 1.46 GB
Как cкачать? Как скачать Али через торрент | UTorrent

% Раздел Тема Автор DL S | L
Фильмы [HD 720p, 1080p] (Хороший звук DUB, MVO) [ 6.67 GB ] Алиса в стране чудес / Alice in Wonderland [2010 BDRip 720p] sleksua Скачать
1 | 0
Кино СССР [ 1.99 GB ] Калина красная / Kalina krasnaya [1973 ... DVDRip лицензия] allexx70 Скачать
1 | 0
Калифорникейшн (Californication) [ 24.91 GB ] Блудливая Калифорния / Californication jedi4 Скачать
3 | 0
Фильмы (Blu-ray, BD-Remux, HDDVD) [ 18.73 GB ] Алиса в стране чудес / Alice in Wonderland [2010 Blu-Ray Remux ] aspace Скачать
1 | 0
Фильмы [HD 720p, 1080p] (Хороший звук DUB, MVO) [ 14.3 GB ] Санктум / Sanctum [2011 ​ BDRip 1080p] diletant Скачать
1 | 0
Фильмы 2009 [ 1.36 GB ] Химера / Splice [2009 DVDRip] DUB 1.36 GB aspace Скачать
1 | 0
Старые игры [ 652 MB ] Алиса Гроза Зазеркалья / American McGee's Alice [лицензияENG/RUAction] jedi4 Скачать
1 | 0

28-11-2019 20:33  

Отключить всю рекламу на сайте

07-02-2012 16:43 Али Скачать торрент  

Гениальный фильм, всё по высшему классу. Обязателен к просмотру, даже тем кому не интересен бокс.piratbit.org



25-06-2012 18:36 Али Скачать торрент  

Боксер легенда, Боксер которому позавидует по техники даже Рой Джонс.мл, быстрее чем Артутро Гатти, он заслуживает большого уважения и Уил Смит его классно сыграл. Фильм очень классный, очень рекоминдую.piratbit.org



    Дорогой пользователь! Огромная просьба, поблагодарите релизера, оцените раздачу и оставьте свои комментарий, если Вы скачали Али через торрент бесплатно! Внесите свою лепту в развитие PiratBit!
    Комментировать посты могут только пользователи прошедшие не сложную регистрацию
    Показать сообщения:    

    Али через торрент
    Скачать бесплатно Али
    Али скачать торрент
    Али смотреть онлайн
    Cкачать фильм Али бесплатно
    Али скачать торрент в хорошем качестве
    Али смотреть онлайн бесплатно в хорошем качестве


    Вы не можете начинать темы
    Вы не можете отвечать на сообщения
    Вы не можете редактировать свои сообщения
    Вы не можете удалять свои сообщения
    Вы не можете голосовать в опросах
    Вы не можете прикреплять файлы к сообщениям
    Вы можете скачивать файлы