Marvel's Avengers Deluxe Edition (супер цена) 159р. Внимание количество ограничено!!!

2 сезон

iTunes

iTunes

1

iTunes

iTunes

iTunes

WEBRip

iTunes

30
pack

Новость дня

ВАЖНО

!!Акция!!

Alien_RageХит недели

RePack

Horizon Zero Dawn

ИГРА 18+

pack

RePack

jed

!!Акция!!

Alien_Rage

RePack

fifa19

RePack

Assassins Creed: Odyssey

RePack

NEED FOR SPEED™ PAYBACK

4 сезон

9 сезон

Бесстыжие 9 сезон

Все сериалы

все сериалы на PB.wtf

RePack

FAR CRY 5
  

Война / War (Филлип Дж. Этвелл) [2007 г., боевик, триллер, криминал, HDRip] piratbit.org

Война через торрент piratbit.org

Размер: 1.46 GB | Добавлен: 9 лет 1 мес. назад | Торрент скачан:513 раз
Скачать  

01-08-2011 15:55 Война Скачать торрент  

Война / War«Месть как абсолютное оружие»


Год выпуска: 2007
Страна: США
Жанр: боевик, триллер, криминал
Продолжительность: 103 мин.
Перевод: Профессиональный (полное дублирование)


Режиссер: Филлип Дж. Этвелл
Продюссер: Стив Чэсмэн, Кристофер Петцель, Джим Томпсон
Сценарий: Ли Энтони Смит, Грегори Дж. Брэдли


бюджет: $25 000 000
Премьера в мире: 24 августа 2007


В ролях: Джет Ли, Джейсон Стэтхэм, Джон Лоун, Девон Аоки, Луис Гузман, Сол Рубинек, Рё Исибаси, Санг Кенг, Мэтью Ст. Патрик, Надин Веласкес



В мире, которым правит страх, только правосудие спасает жизни. На счету агента ФБР Джека Кроуфорда и его напарника немало обезвреженных бандитов. Но справедливость и закон оказались бессильны, когда одержимый убийца объявил им войну. С этого момента жизнь Кроуфорда превращается в бесконечную игру со смертью, захватывающую и жестокую. Игру, где жизнь не стоит ничего, а бывшие друзья становятся заклятыми врагами.




Качество: HDRip
Формат: AVI
Видео кодек: XviD
Аудио кодек: AC3
Видео: 720x304 (2.37:1), 23.976 fps, XviD build 50 ~1576 kbps avg, 0.30 bit/pixe
Аудио: 448 kHz, AC3 Dolby Digital, 3/2 (L,C,R,l,r) + LFE ch, ~448 kbps



Общее
Полное имя : D:\торенты\cваты 4\Война.avi
Формат : AVI
Формат/Информация : Audio Video Interleave
Размер файла : 1,46 Гбайт
Продолжительность : 1 ч. 43 м.
Общий поток : 2033 Кбит/сек
Название фильма : Voyna
Режиссёр : Шкод@
Программа кодирования : VirtualDubMod 1.5.10.2 (build 2540/release)
Правообладатель : http://rutracker.org

Видео
Идентификатор : 0
Формат : MPEG-4 Visual
Профиль формата : Advanced Simple@L5
Параметр BVOP формата : 1
Параметр QPel формата : Нет
Параметр GMC формата : Без точки перехода
Параметр матрицы формата : Default (MPEG)
Идентификатор кодека : XVID
Идентификатор кодека/Подсказка : XviD
Продолжительность : 1 ч. 43 м.
Битрейт : 1576 Кбит/сек
Ширина : 720 пикс.
Высота : 304 пикс.
Соотношение сторон : 2,35:1
Частота кадров : 23,976 кадр/сек
Цветовое пространство : YUV
Подвыборка цветности : 4:2:0
Битовая глубина : 8 бит
Тип развёртки : Прогрессивная
Метод сжатия : С потерями
Бит/(Пиксели*Кадры) : 0.300
Размер потока : 1,13 Гбайт (78%)
Библиотека кодирования : XviD 1.2.1 (UTC 2008-12-04)

Аудио
Идентификатор : 1
Формат : AC-3
Формат/Информация : Audio Coding 3
Расширение режима : CM (complete main)
Идентификатор кодека : 2000
Продолжительность : 1 ч. 42 м.
Вид битрейта : Постоянный
Битрейт : 448 Кбит/сек
Каналы : 6 каналов
Расположение каналов : Front: L C R, Side: L R, LFE
Частота : 48,0 КГц
Битовая глубина : 16 бит
Метод сжатия : С потерями
Размер потока : 330 Мбайт (22%)
Выравнивание : Соединение по промежуткам
Продолжительность промежутка : 42 мс. (1,00 видеокадр)
Время предзагрузки промежутка : 512 ms
скриншот  скриншот  скриншот  скриншот  скриншот  скриншот  piratbit.org



Скачать Война через торрент http://i26.fastpic.ru/big/2011/0801/5a/efcf56b37dd88d7e1f8ab117d4d9315a.jpg Скачать фильм Война через торрент бесплантно в хорошем качестве В ролях: Джет Ли, Джейсон Стэтхэм, Джон Лоун, Девон Аоки, Луис Гузман, Сол Рубинек, Рё Исибаси, Санг Кенг, Мэтью Ст. Патрик, Надин ... 9.5 10 4
Info! Золотая раздача, скачанное не засчитывается.
Торрент: Зарегистрирован [2011-08-01 15:55] · скачан: 513 раз
Статус: √ проверено
Размер: 1.46 GB
Как cкачать? Как скачать Война через торрент | qTorrent

% Раздел Тема Автор DL S | L
Сборники на DVD и Сиквелы [DVDrip, WEB-DLRip, HDrip, BDRip] [ 4.36 GB ] Звёздные войны 123456 / Star Wars [1977 1980 1983 1999 2002 2005 г HDTVRip-AVC] DUB - Мега-сборка на 1 DVD L_E_X Скачать
1 | 0
Зарубежные сериалы [ 3.71 GB ] Войны байкеров / Bikie Wars: Brothers in Arms / Сезон: 1 / Серии: 1-6 [2012 история образ жизни HDRip] MVO FilmGate + Original wekotila Скачать
1 | 2
Дополнения к играм [ 1.03 GB ] Герои меча и магии 5: Эпоха эпических войн / Heroes of Might & Magic V: Epic War Age [лицензияRUМодификация / Аdd-Оn / Пошаговая стратегия] Ghost161 Скачать
1 | 0
RPG [ 4.1 GB ] Star Wars: Battlefront. Anthology / Звёздные войны: Арена войны. Антология [RePackRU/ENLucasArts Entertainment] IZnoGood Скачать
1 | 0
Фильмы (Blu-ray, BD-Remux, HDDVD) [ 21.99 GB ] Звездные войны: Эпизод 3 - Месть Ситхов / Star Wars: Episode III - Revenge of the Sith [2005 BDRip 1080p] fallen_poet Скачать
1 | 0
RTS (стратегии в реальном времени) [ 4.62 GB ] Warhammer 40k Dawn of War: Рассвет войны - Зов улья 2011 [ПираткаRUStrategy / 3D] =Чувак= Скачать
3 | 0
TBS (пошаговые стратегии) [ 1.66 GB ] Герои Меча и Магии IV + Грядущая буря + Вихри войны [Бука] [L] Shmel Скачать
1 | 0

28-11-2019 20:33  

Отключить всю рекламу на сайте

01-08-2011 15:59 Война Скачать торрент  

Моё мнение Джейсон Стэтхэм лучший актёр.piratbit.org



01-08-2011 16:12 Война Скачать торрент  

NarutoSasuke писал(а):

Моё мнение Джейсон Стэтхэм лучший актёр.

согласенpiratbit.org



01-08-2011 16:18 Война Скачать торрент  

NarutoSasuke писал(а):

Моё мнение Джейсон Стэтхэм лучший актёр.

+1 )))piratbit.org



01-08-2011 16:25 Война Скачать торрент  

сэмюэль л. джексон вот это лучший актер. столько образов сколько у него я не видел не у кого. а стэтхэм везде однотипен. без обид пацаныpiratbit.org



01-08-2011 16:36 Война Скачать торрент  

Стэтхэм конечно классный актёр , но я соглашусь с Soinmcpiratbit.org



01-08-2011 17:46 Война Скачать торрент  

кто не согласен что стетхем тот мне врагpiratbit.org



01-08-2011 17:58 Война Скачать торрент  

Стэтхэм обычный бык каких много было. Просто агент у него рульный лучше чем у других быков вот и весь секрет. Актёрским мастерством там и не пахнет.:search:
soinmc +100 :good:piratbit.org



01-08-2011 18:19 Война Скачать торрент  

Достала рожа Стетхема тупая.Я подозреваю что он гей. piratbit.org



01-08-2011 19:05 Война Скачать торрент  

но фильм все равно . согласитесь?piratbit.org



23-08-2011 22:35 Война Скачать торрент  

Валунчик писал(а):

Достала рожа Стетхема тупая.Я подозреваю что он гей.

Харош гнать,актёр он хороший,да и рожа у него поумней чем у нас будет поверь мне))piratbit.org



    Дорогой пользователь! Огромная просьба, поблагодарите релизера, оцените раздачу и оставьте свои комментарий, если Вы скачали Война через торрент бесплатно! Внесите свою лепту в развитие PiratBit!
    Комментировать посты могут только пользователи прошедшие не сложную регистрацию
    Показать сообщения:    

    Война через торрент
    Скачать бесплатно Война
    Война скачать торрент
    Война смотреть онлайн
    Cкачать фильм Война бесплатно
    Война скачать торрент в хорошем качестве
    Война смотреть онлайн бесплатно в хорошем качестве


    Вы не можете начинать темы
    Вы не можете отвечать на сообщения
    Вы не можете редактировать свои сообщения
    Вы не можете удалять свои сообщения
    Вы не можете голосовать в опросах
    Вы не можете прикреплять файлы к сообщениям
    Вы можете скачивать файлы