Anonymous, добрый день, присоединяйтесь к нам в Telegram!, здесь всегда актуальный адрес сайта, оперативная поддержка и многое другое!

>

5.6

iTunes

7.4

iTunes

5.7

MVO

1

7.7

1 сезон

6.8

iTunes

7.3

1 сезон

13

6.7

1 сезон

8.3

RePack

30

ULTIMATE

pack

9.9

Лицензия

ВАЖНО

ИГРА 18+

pack

7.3

RePack

MK11

7.7

RePack

jed

7.8

RePack

fifa19

8.5

RePack

RDR2

RePack

NEED FOR SPEED™ PAYBACK

4 сезон

9 сезон

Бесстыжие 9 сезон

Все сериалы

все сериалы на PB.wtf

RePack

FAR CRY 5

Anonymous, добрый день, мы катастрофически не успеваем собрать деньги на оплату серверов, помогите нам пожалуйста 5,10,15р., для нас важна любая помощь . В качестве благодарности мы отключим Вам всю рекламу на сайте (укажите свой ник в строку Ваше имя)!

×
  
Magnet ссылка

Риццоли и Айлз / Rizzoli and Isles (1 сезон: 10 серии из 10) (Билл Хабер) [2010 г., драма, криминал, детектив, WEBDLRip] piratbit.org

Риццоли и Айлз через торрент piratbit.org

Размер: 4.05 GB | Добавлен: 10 лет назад | Торрент скачан:8 раз
Смотреть онлайн Риццоли и Айлз | Скачать    Ребята, помогите собрать деньги на оплату серверов!!!

10-08-2011 16:01 Риццоли и Айлз Скачать торрент  

Риццоли и Айлз / Rizzoli and Isles
(1 сезон: 10 серии из 10)


Год выпуска: 2010
Выпущено: США, Warner Horizon Television
Жанр: драма, криминал, детектив
Продолжительность: ~ 00:43:00
Перевод: Любительский двухголосый (закадровый)

Режиссер: Билл Хабер
Продюссер: Джоэль Филдс, Элизабет Бенжамин, Элисон Кросс
Сценарий: Тесс Герритсен, Джанет Тамаро, Джоэль Филдс

Кинопоиск: 7.80 (1 055)
IMDb: 7.823 217

В ролях: Энджи Хэрмон, Саша Александр, Лоррейн Бракко, Ли Томпсон Янг, Брюс МакГилл, Дженнифер Холлэнд, Джэйсон Блэр, Том Бауэр, Джордан Бриджес, Мариса Рамирез, Кристал Рид



Описание: Главная героиня сериала — Джейн Риццоли, бостонский детектив, которая вместе с патологоанатомом Морой Айлс, раскрывает преступления. Сериал основан на популярных детективных романах Тесс Герритсен.

Качество: WEBDLRip
Формат: AVI
Видео кодек: XviD
Аудио кодек: MP3
Видео: 720x400 (1.80:1), 23.976 fps, XviD build 50 ~1233 kbps avg, 0.18 bit/pixel
Аудио №1: 48 kHz, MPEG Layer 3, 2 ch, ~128.00 kbps avg [ru]
Аудио №2: 48.000 kHz, MPEG Layer 3, stereo, ~128.00 kbps [en]

Релиз от:

Над релизом работали:
Перевод и редакция: veretskiy
Озвучивание: Morticia, kiitos
Монтаж и сведение звука: kiitos, herto
E:\ЗАГРУЗКА\Риццоли и Айлз (1 сезон 1-10)\Rizzoli.i.Ayls.(1.sezon.01.serija).2010.XviD.WEBDLRip.[kiitos.&.Morticia].avi
General
Complete name : E:\ЗАГРУЗКА\Риццоли и Айлз (1 сезон 1-10)\Rizzoli.i.Ayls.(1.sezon.01.serija).2010.XviD.WEBDLRip.[kiitos.&.Morticia].avi
Format : AVI
Format/Info : Audio Video Interleave
File size : 550 MiB
Duration : 50mn 54s
Overall bit rate : 1 511 Kbps
Writing application : VirtualDubMod 1.5.10.2 (build 2540/release)
Writing library : VirtualDubMod build 2540/release
Video #0
ID : 0
Format : MPEG-4 Visual
Format profile : Advanced Simple@L5
Format settings, BVOP : Yes
Format settings, QPel : No
Format settings, GMC : No warppoints
Format settings, Matrix : Default (H.263)
Codec ID : XVID
Codec ID/Hint : XviD
Duration : 50mn 54s
Bit rate : 1 235 Kbps
Width : 720 pixels
Height : 400 pixels
Display aspect ratio : 16:9
Frame rate : 23.976 fps
Resolution : 8 bits
Colorimetry : 4:2:0
Scan type : Progressive
Bits/(Pixel*Frame) : 0.179
Stream size : 450 MiB (82%)
Writing library : XviD 1.2.1 (UTC 2008-12-04)
Audio #1
ID : 1
Format : MPEG Audio
Format version : Version 1
Format profile : Layer 3
Format_Settings_Mode : Joint stereo
Format_Settings_ModeExtension : MS Stereo
Codec ID : 55
Codec ID/Hint : MP3
Duration : 50mn 54s
Bit rate mode : Constant
Bit rate : 128 Kbps
Channel(s) : 2 channels
Sampling rate : 48.0 KHz
Stream size : 46.6 MiB (8%)
Alignment : Aligned on interleaves
Interleave, duration : 42 ms (1.00 video frame)
Interleave, preload duration : 504 ms
Audio #2
ID : 2
Format : MPEG Audio
Format version : Version 1
Format profile : Layer 3
Format_Settings_Mode : Joint stereo
Format_Settings_ModeExtension : MS Stereo
Codec ID : 55
Codec ID/Hint : MP3
Duration : 50mn 54s
Bit rate mode : Variable
Bit rate : 131 Kbps
Nominal bit rate : 128 Kbps
Channel(s) : 2 channels
Sampling rate : 48.0 KHz
Stream size : 47.6 MiB (9%)
Alignment : Aligned on interleaves
Interleave, duration : 24 ms (0.58 video frame)
Interleave, preload duration : 393 ms
Writing library : LAME3.90.
Encoding settings : -m j -V 4 -q 2 -lowpass 17.6 --abr 128
01 серия: Высмотреть, задействовать, обучить (See One, Do One, Teach One)
02 серия: Возвращение Бостонского душителя (Boston Strangler Redux)
03 серия: Сочувствие к дьяволу (Sympathy for the Devil)
04 серия: Ради денег она работала, не покладая рук (She Works Hard for the Money)
05 серия: Деньги ни за что (Money for Nothing)
06 серия: Я поцеловалась с девушкой (I Kissed a Girl)
07 серия: Рождённые бежать (Born to Run)
08 серия: Я твой Бугимен (I'm Your Boogie Man)
09 серия: Зверь во мне (The Beast in Me)
10 серия: Когда гремят выстрелы (When the Gun Goes Bang, Bang)
piratbit.org



Скачать Риццоли и Айлз через торрент http://i26.fastpic.ru/big/2011/0810/9a/c446729ba148a0ec18a79fa0906f0e9a.jpg Скачать, смотреть онлайн Риццоли и Айлз бесплантно в хорошем качестве Описание: Главная героиня сериала — Джейн Риццоли, бостонский детектив, которая вместе с патологоанатомом Морой Айлс, раскрывает ... 5 10 2
Info! Золотая раздача, скачанное не засчитывается.
Торрент: Зарегистрирован [2011-08-10 16:01] · скачан: 8 раз
Статус: √ проверено
Размер: 4.05 GB
Как cкачать? Как скачать Риццоли и Айлз через торрент | UTorrent

% Раздел Тема Автор DL S | L
Зарубежные сериалы [ 5.86 GB ] Риццоли и Айлз / Rizzoli and Isles [2011 WEB-DLRip] lyokaa Скачать
1 | 0

28-11-2019 20:33  

Отключить всю рекламу на сайте

23-08-2011 10:08 Риццоли и Айлз Скачать торрент  

ПЛИЗЗЗЗЗЗЗЗЗ, дайте докачать!!!!!!!!!!!!!!!!!!!!!!!! 5% осталось!piratbit.org



23-08-2011 10:10 Риццоли и Айлз Скачать торрент  

lyokaa
Куда же Вы делись? :((( Очень хочется докачать!piratbit.org



    Дорогой пользователь! Огромная просьба, поблагодарите релизера, оцените раздачу и оставьте свои комментарий, если Вы скачали Риццоли и Айлз через торрент бесплатно!
    Комментировать посты могут только пользователи прошедшие не сложную регистрацию
    Показать сообщения:    

    Риццоли и Айлз через торрент
    Скачать бесплатно Риццоли и Айлз
    Риццоли и Айлз скачать торрент
    Риццоли и Айлз смотреть онлайн
    Cкачать фильм Риццоли и Айлз бесплатно
    Риццоли и Айлз скачать торрент в хорошем качестве
    Риццоли и Айлз смотреть онлайн бесплатно в хорошем качестве


    Вы не можете начинать темы
    Вы не можете отвечать на сообщения
    Вы не можете редактировать свои сообщения
    Вы не можете удалять свои сообщения
    Вы не можете голосовать в опросах
    Вы не можете прикреплять файлы к сообщениям
    Вы можете скачивать файлы