Anonymous, добрый вечер, присоединяйтесь к нам в Telegram!, здесь всегда актуальный адрес сайта, оперативная поддержка и многое другое!

>

5.6

iTunes

7.4

iTunes

5.7

MVO

1

7.7

1 сезон

6.8

iTunes

7.3

1 сезон

13

6.7

1 сезон

8.3

RePack

30

ULTIMATE

pack

9.9

Лицензия

ВАЖНО

ИГРА 18+

pack

7.3

RePack

MK11

7.7

RePack

jed

7.8

RePack

fifa19

8.5

RePack

RDR2

RePack

NEED FOR SPEED™ PAYBACK

4 сезон

9 сезон

Бесстыжие 9 сезон

Все сериалы

все сериалы на PB.wtf

RePack

FAR CRY 5

Anonymous, добрый вечер, мы катастрофически не успеваем собрать деньги на оплату серверов, помогите нам пожалуйста 5,10,15р., для нас важна любая помощь . В качестве благодарности мы отключим Вам всю рекламу на сайте (укажите свой ник в строку Ваше имя)!

×
  
Magnet ссылка

Бермудский треугольник / Triangle, The / 1 сезон, серии 1-3(3) (Крэйг Р. Бэксли) [2005 г., фантастика, боевик, триллер, драма, детектив, приключения, HDTVRip] piratbit.org

Бермудский треугольник через торрент piratbit.org

Размер: 2.18 GB | Добавлен: 10 лет назад | Торрент скачан:265 раз
Смотреть онлайн Бермудский треугольник | Скачать    Ребята, помогите собрать деньги на оплату серверов!!!

13-08-2011 12:20 Бермудский треугольник Скачать торрент  

Бермудский треугольник / Triangle, The



Год выпуска: 2005
Страна: СШA, Великобритания
Жанр: фантастика, боевик, триллер, драма, детектив, приключения
Продолжительность: 240 мин.
Перевод: Профессиональный (многоголосый, закадровый) ТВ3


Режиссер: Крэйг Р. Бэксли
Продюссер: Дин Девлин, Келли Ван Хорн, Марк Вайгерт
Сценарий: Дин Девлин, Рокни С. О’Бэннон, Брайан Сингер


В ролях: Эрик Столц, Катрин Белл, Лу Дайэмонд Филлипс, Брюс Дэвисон, Майкл Э. Роджерс, Сэм Нил, Лиза Бреннер, Джон Слоун, Чарльз Мартин Смит, Бэрри Ингэм



Миллиардер Эрик Бениролл нанимает команду специалистов, чтобы те попытались выяснить причину исчезновения в районе Бермудского треугольника принадлежавших ему кораблей. Команда — журналист-скептик, инженер, ученый и экстрасенс — отправились в заданный район и вскоре столкнулись с аномальными явлениями, но, как оказалось, это — только начало. Что происходит? Куда они плывут? Они живы или мертвы? Пришельцы или что-то еще?...




Качество: HDTVRip
Формат: AVI
Видео кодек: XviD
Аудио кодек: MP3
Видео: 656x368 (1.78:1), 25 fps, XviD build 50 ~1085 kbps avg, 0.18 bit/pixel
Аудио: 48 kHz, MPEG Layer 3, 2 ch, ~128.00 kbps avg

Общее
Полное имя : D:\торенты\cваты 4\Бермудский треугольник\Bermudskiy_treugolnik_HDTVRip_1_[rutracker.org]_by_Scarabey.avi
Формат : AVI
Формат/Информация : Audio Video Interleave
Размер файла : 743 Мбайт
Продолжительность : 1 ч. 24 м.
Общий поток : 1224 Кбит/сек
Программа кодирования : VirtualDubMod 1.5.10.2 (build 2540/release)
Библиотека кодирования : VirtualDubMod build 2540/release

Видео
Идентификатор : 0
Формат : MPEG-4 Visual
Профиль формата : Advanced Simple@L5
Параметр BVOP формата : 1
Параметр QPel формата : Нет
Параметр GMC формата : Без точки перехода
Параметр матрицы формата : Выборочная
Идентификатор кодека : XVID
Идентификатор кодека/Подсказка : XviD
Продолжительность : 1 ч. 24 м.
Битрейт : 1086 Кбит/сек
Ширина : 656 пикс.
Высота : 368 пикс.
Соотношение сторон : 16:9
Частота кадров : 25,000 кадр/сек
Цветовое пространство : YUV
Подвыборка цветности : 4:2:0
Битовая глубина : 8 бит
Тип развёртки : Прогрессивная
Метод сжатия : С потерями
Бит/(Пиксели*Кадры) : 0.180
Размер потока : 660 Мбайт (89%)
Библиотека кодирования : XviD 1.2.1 (UTC 2008-12-04)

Аудио
Идентификатор : 1
Формат : MPEG Audio
Версия формата : Version 1
Профиль формата : Layer 3
Идентификатор кодека : 55
Идентификатор кодека/Подсказка : MP3
Продолжительность : 1 ч. 24 м.
Вид битрейта : Постоянный
Битрейт : 128 Кбит/сек
Каналы : 2 канала
Частота : 48,0 КГц
Метод сжатия : С потерями
Размер потока : 77,8 Мбайт (10%)
Выравнивание : Соединение по промежуткам
Продолжительность промежутка : 40 мс. (1,00 видеокадр)
Время предзагрузки промежутка : 504 ms
Библиотека кодирования : LAME3.97
Настройки программы : -m s -V 4 -q 2 -lowpass 17 -b 128
Съемки телевизионного мини-сериала проходили в июне 2005 года в Кейптауне (Южная Африка).
Этот мини-сериал вместил в себя более 800 сцен со спецэффектами.

скриншот  скриншот  скриншот  скриншот  скриншот  скриншот  

piratbit.org



Скачать Бермудский треугольник через торрент http://i26.fastpic.ru/big/2011/0813/55/dfe75101a15b7d3a400a478e7fab9e55.jpg Скачать, смотреть онлайн Бермудский треугольник бесплантно в хорошем качестве В ролях: Эрик Столц, Катрин Белл, Лу Дайэмонд Филлипс, Брюс Дэвисон, Майкл Э. Роджерс, Сэм Нил, Лиза Бреннер, Джон Слоун, Чарльз Мартин ... 10 10 1
Info! Золотая раздача, скачанное не засчитывается.
Торрент: Зарегистрирован [2011-08-13 12:20] · скачан: 265 раз
Статус: √ проверено
Размер: 2.18 GB
Как cкачать? Как скачать Бермудский треугольник через торрент | UTorrent

% Раздел Тема Автор DL S | L
Зарубежные сериалы [ 4.37 GB ] Бермудский треугольник / The Triangle / Сезон: 1 / Серии 3 из 3 [2005 DVDRip] MVO + original wekotila Скачать
1 | 0


Последний раз редактировалось: NarutoSasuke (2011-08-13 15:48), всего редактировалось 2 раз(а)

28-11-2019 20:33  

Отключить всю рекламу на сайте

13-08-2011 13:48 Бермудский треугольник Скачать торрент  

спасибо большое очень понравился фильм!!!piratbit.org



20-08-2011 14:01 Бермудский треугольник Скачать торрент  

Спасибо! Фильм понравился! Будет ли продолжение икогда! piratbit.org



    Дорогой пользователь! Огромная просьба, поблагодарите релизера, оцените раздачу и оставьте свои комментарий, если Вы скачали Бермудский треугольник через торрент бесплатно!
    Комментировать посты могут только пользователи прошедшие не сложную регистрацию
    Показать сообщения:    

    Бермудский треугольник через торрент
    Скачать бесплатно Бермудский треугольник
    Бермудский треугольник скачать торрент
    Бермудский треугольник смотреть онлайн
    Cкачать фильм Бермудский треугольник бесплатно
    Бермудский треугольник скачать торрент в хорошем качестве
    Бермудский треугольник смотреть онлайн бесплатно в хорошем качестве


    Вы не можете начинать темы
    Вы не можете отвечать на сообщения
    Вы не можете редактировать свои сообщения
    Вы не можете удалять свои сообщения
    Вы не можете голосовать в опросах
    Вы не можете прикреплять файлы к сообщениям
    Вы можете скачивать файлы