Anonymous, доброй ночи, присоединяйтесь к нам в Telegram!, здесь всегда актуальный адрес сайта, оперативная поддержка и многое другое!

>

5.5

iTunes

7.4

iTunes

7.9

iTunes

1

7.7

1 сезон

6.8

iTunes

7.3

1 сезон

13

6.7

1 сезон

8.3

RePack

30

ULTIMATE

pack

9.9

Лицензия

ВАЖНО

ИГРА 18+

pack

7.3

RePack

MK11

7.7

RePack

jed

7.8

RePack

fifa19

8.5

RePack

RDR2

RePack

NEED FOR SPEED™ PAYBACK

4 сезон

9 сезон

Бесстыжие 9 сезон

Все сериалы

все сериалы на PB.wtf

RePack

FAR CRY 5

Anonymous, доброй ночи, мы катастрофически не успеваем собрать деньги на оплату серверов, помогите нам пожалуйста 5,10,15р., для нас важна любая помощь . В качестве благодарности мы отключим Вам всю рекламу на сайте (укажите свой ник в строку Ваше имя)!

×
  
Magnet ссылка

Путешественник / Journeyman / 1 сезон, серии 1-13(13) (Алекс Грейвз) [2007 г., фантастика, фэнтези, мелодрама, HDTVRip] piratbit.org

Путешественник через торрент piratbit.org

Размер: 4.93 GB | Добавлен: 10 лет назад | Торрент скачан:53 раза
Смотреть онлайн Путешественник | Скачать    Ребята, помогите собрать деньги на оплату серверов!!!

13-08-2011 12:45 Путешественник Скачать торрент  

Путешественник / Journeyman



Год выпуска: 2007
Страна: США
Жанр: фантастика, фэнтези, мелодрама
Продолжительность: 42 мин.
Перевод: Профессиональный (полное дублирование) ТВ3


Режиссер: Алекс Грейвз
Продюссер: Хуан Карлос Кото, Джоан Биндер Уайсс, Megan Mascena Gaspar
Сценарий: Кевин Фоллс, Мэтт МакГиннесс, Том Зенгиорги


В ролях: Кевин МакКидд, Гретчен Эголф, Мун Бладгуд, Рид Даймонд, Брайан Хау, Чарльз Генри Висон, Julia Farsadi, Лиза Шеридан, Том Эверетт, Пол Шульц



У Дэна Вассера было все: любящая жена, ребенок и отличная работа. Но внезапно его жизнь резко изменилась. Теперь он путешествует в прошлое и пытается изменить судьбы людей к лучшему. Дэн встречает свою бывшую невесту, погибшую в авиакатострофе при загадочных обстоятельствах. Вооруженный знаниями о прошлом сможет ли он ее спасти? Как изменится его собственное будущее? И кем станет он сам? Тем более, что он не один такой путешественник...




Качество: HDTVRip
Формат: AVI
Видео кодек: DivX
Аудио кодек: MP3
Видео: 624x352 (1.77:1), 23.976 fps, DivX Codec 6.8.5 ~1079 kbps avg, 0.21 bit/pixel
Аудио Rus: 48 kHz, MPEG Layer 3, 2 ch, ~128.00 kbps avg
Аудио Eng: 48 kHz, MPEG Layer 3, 2 ch, ~128.00 kbps avg

Общее
Полное имя : D:\торенты\cваты 4\s01\journeyman.s01e01.hdtv.rus_tv3.eng.novafilm_tv.avi
Формат : AVI
Формат/Информация : Audio Video Interleave
Размер файла : 390 Мбайт
Продолжительность : 42 м.
Общий поток : 1295 Кбит/сек
Программа кодирования : VirtualDubMod 1.5.10.2 (build 2542/release)
Библиотека кодирования : VirtualDubMod build 2542/release

Видео
Идентификатор : 0
Формат : MPEG-4 Visual
Параметр BVOP формата : 1
Параметр QPel формата : Нет
Параметр GMC формата : Без точки перехода
Параметр матрицы формата : Default (H.263)
Режим смешивания : Сжатый битовый поток
Идентификатор кодека : DX50
Идентификатор кодека/Подсказка : DivX 5
Продолжительность : 42 м.
Битрейт : 1025 Кбит/сек
Ширина : 624 пикс.
Высота : 352 пикс.
Соотношение сторон : 16:9
Частота кадров : 23,976 кадр/сек
Цветовое пространство : YUV
Подвыборка цветности : 4:2:0
Битовая глубина : 8 бит
Тип развёртки : Прогрессивная
Метод сжатия : С потерями
Бит/(Пиксели*Кадры) : 0.195
Размер потока : 309 Мбайт (79%)
Библиотека кодирования : DivX 6.8.5 (UTC 2009-08-20)

Аудио #1
Идентификатор : 1
Формат : MPEG Audio
Версия формата : Version 1
Профиль формата : Layer 3
Режим : Joint stereo
Расширение режима : MS Stereo
Идентификатор кодека : 55
Идентификатор кодека/Подсказка : MP3
Продолжительность : 42 м.
Вид битрейта : Постоянный
Битрейт : 128 Кбит/сек
Каналы : 2 канала
Частота : 48,0 КГц
Метод сжатия : С потерями
Размер потока : 38,6 Мбайт (10%)
Выравнивание : Соединение по промежуткам
Продолжительность промежутка : 42 мс. (1,00 видеокадр)
Время предзагрузки промежутка : 504 ms

Аудио #2
Идентификатор : 2
Формат : MPEG Audio
Версия формата : Version 1
Профиль формата : Layer 3
Режим : Joint stereo
Расширение режима : MS Stereo
Идентификатор кодека : 55
Идентификатор кодека/Подсказка : MP3
Продолжительность : 42 м.
Вид битрейта : Постоянный
Битрейт : 128 Кбит/сек
Каналы : 2 канала
Частота : 48,0 КГц
Метод сжатия : С потерями
Размер потока : 38,6 Мбайт (10%)
Выравнивание : Соединение по промежуткам
Продолжительность промежутка : 42 мс. (1,00 видеокадр)
Время предзагрузки промежутка : 504 ms
Хороший сериал. Не сказать, чтобы я оказался от него в восторге, но всё же весьма и весьма недурно.

Главный герой неожиданно для себя обретает способность перемещаться в прошлое (притом не по своей воле), чтобы изменять в нём кое-какие трагические события. В каждой серии мы видим какую-либо отдельную судьбу человека, которую изменяет Дэн, сопровождая во время особо важных моментов жизни. Ему это всё не очень нравится, но что поделаешь? Ведь его никто не спросил.

Вообще, сама идея сериала интересна. Прибавить к этому неплохой состав исполнителей и добротный сюжетец — получаем продукт уровня выше среднего.

Хорошо подобран актёрский состав, в котором особо хочется выделить Кевин МакКидда, исполнителя роли самого Дэна, и Брайана Хоу, в роли его главного редактора Хака. Каждый из них прекрасно справляется со своими образами.

Любая из историй прошлого, в которые приходится влезать Дэну, имеет какую-либо изюминку. Тут и притягательные 70-е, и события, произошедшие совсем недавно.

С каждым новым путешествием он будет приближается к разгадке своего предназначения. Но важнее, чем выяснение причин появления дара (или проклятия), будет смирение с уготованным жизненным путём.

Дэну Вассеру дана уникальная возможность менять прошлое — то, о чём мечтают многие. Но, меняя прошлое, нужно не забывать о последствиях для настоящего…

В определённый момент семейные проблемы Дэна начинают раздражать, не очень органично вписываясь в действие. Но всё же они не успевают испортить ощущения от сериала. Благо снято всего 13 серий, и сюжет не уходит в высасывание идей из пальца.

8 из 10

скриншот  скриншот  скриншот  скриншот  скриншот  скриншот  

piratbit.org



Скачать Путешественник через торрент http://i25.fastpic.ru/big/2011/0813/4a/2fe2ffd659cecf935b0f6ac2e4c7d04a.jpg Скачать, смотреть онлайн Путешественник бесплантно в хорошем качестве В ролях: Кевин МакКидд, Гретчен Эголф, Мун Бладгуд, Рид Даймонд, Брайан Хау, Чарльз Генри Висон, Julia Farsadi, Лиза Шеридан, Том Эверетт, ... 5 10 7
Info! Золотая раздача, скачанное не засчитывается.
Торрент: Зарегистрирован [2011-08-13 12:45] · скачан: 53 раз
Статус: √ проверено
Размер: 4.93 GB
Как cкачать? Как скачать Путешественник через торрент | UTorrent

28-11-2019 20:33  

Отключить всю рекламу на сайте

13-08-2011 17:01 Путешественник Скачать торрент  

Как сериальчик-то?piratbit.org



    Дорогой пользователь! Огромная просьба, поблагодарите релизера, оцените раздачу и оставьте свои комментарий, если Вы скачали Путешественник через торрент бесплатно!
    Комментировать посты могут только пользователи прошедшие не сложную регистрацию
    Показать сообщения:    

    Путешественник через торрент
    Скачать бесплатно Путешественник
    Путешественник скачать торрент
    Путешественник смотреть онлайн
    Cкачать фильм Путешественник бесплатно
    Путешественник скачать торрент в хорошем качестве
    Путешественник смотреть онлайн бесплатно в хорошем качестве


    Вы не можете начинать темы
    Вы не можете отвечать на сообщения
    Вы не можете редактировать свои сообщения
    Вы не можете удалять свои сообщения
    Вы не можете голосовать в опросах
    Вы не можете прикреплять файлы к сообщениям
    Вы можете скачивать файлы