Всегда рабочее зеркало без VPN и Proxy просто перед .vidak.icu напиши любое слово или цифру, Пример http://kd1w.vidak.icu

MVO

2 сезон

1 сезон

1

1 сезон

iTunes

2 сезон

13

1 сезон

Deluxe

pack

Рекомендуем

Пиратка

30

ВАЖНО

RePack

MK11

RePack

jed

RePack

fifa19

RePack

RDR2

RePack

NEED FOR SPEED™ PAYBACK

Кинопоиск HD

6 сезон

 Острые козырьки 6 сезон

Все сериалы

все сериалы на PB.wtf

RePack

FAR CRY 5

Anonymous, нам критически не хватает 5601 руб. на оплату серверов и переферии за Апрель, помоги нам пожалуйста, вся надежда только на тебя. В благодарность мы отключим тебе всю рекламу на сайте!

×
  
Magnet ссылка

Гарри Поттер и Принц-полукровка / Harry Potter and the Half-Blood Prince (Дэвид Йейтс) [2009, фэнтези, детектив, приключения, BDRip] DUB [Лицензия] piratbit.org

Гарри Поттер и Принц-полукровка через торрент piratbit.org

Раздают: 1 [ 0 KB/s ]
Размер: 2.18 GB | Добавлен: 3 года 4 мес. назад | Торрент скачан:299 раз
Смотреть онлайн Гарри Поттер и Принц-полукровка | Скачать    Ребята, помогите собрать деньги на оплату серверов!!!

14-11-2009 11:54 Гарри Поттер и Принц-полукровка Скачать торрент  

Гарри Поттер и Принц-полукровка / Harry Potter and the Half-Blood Prince
««Секрет темных сил раскрыт»»

Год выпуска: 2009
Страна: Великобритания, США
Жанр: фэнтези, детектив, приключения, семейный

Продолжительность: 02:33:30
Перевод: Дубляж - [Лицензия]
Режиссер: Дэвид Йейтс
В ролях:

Дэниэл Рэдклифф (Harry Potter), Руперт Гринт (Ron Weasley), Эмма Уотсон (Hermione Granger), Майкл Гэмбон (Professor Albus Dumbledore), Джим Бродбент (Professor Horace Slughorn), Бонни Райт (Ginny Weasley), Хелена Бонем Картер (Bellatrix Lestrange), Алан Рикман (Professor Severus Snape), Том Фелтон (Draco Malfoy), Эванна Линч (Luna Lovegood), Робби Колтрейн (Rubeus Hagrid), Мэгги Смит (Professor Minerva McGonagall)
Описание:
Теперь не только мир волшебников, но и мир маглов ощущает на себе все возрастающую силу Волан-де-Морта, а Хогвартс уже никак не назовешь надежным убежищем, каким он был раньше. Гарри подозревает, что в самом замке затаилась некая опасность, но Дамблдор больше сосредоточен на том, чтобы подготовить его к финальной схватке, которая, как он знает, уже не за горами. Вместе они пытаются разгадать секрет бессмертия Волан-де-Морта, а для этого Дамблдор приглашает на должность преподавателя по зельеварению своего старинного друга и коллегу - профессора Горация Слизнорта, который обожает устраивать вечеринки для избранных и гордится своими обширными связями в высших кругах. Но этот бонвиван и не подозревает, что как раз от него Дамблдор надеется заполучить самую важную информацию о крестражах.
Рейтинг:
rating
MPAA: PG - Рекомендуется присутствие родителей
Качество: BDRip
Формат: AVI
Видео: XviD, 720x304 (2.35:1), 1559 kbps, 23,976 fps, 0,297 bpp
Аудио: русский / AC3 / 5.1 / 48 kHz / 384 kbps / - Дубляж
General
Complete name : D:\Garry.Potter.I.Princ.Polukrovka.2009.RUS.BDRip.XviD.AC3.-HQ-ViDEO.avi
Format : AVI
Format/Info : Audio Video Interleave
File size : 2.18 GiB
Duration : 2 h 33 min
Overall bit rate : 2 033 kb/s
Movie name : Гарри Поттер и Принц-полукровка / Harry Potter and the Half-Blood Prince (2009)
Director : Shevon (BDRemux)
Writing application : VirtualDubMod 1.5.10.2 (build 2542/release)
Copyright : HQ-ViDEO (www.hq-video.ru)
Comment : 17.11.2009

Video
ID : 0
Format : MPEG-4 Visual
Format profile : Advanced Simple@L5
Format settings, BVOP : 1
Format settings, QPel : No
Format settings, GMC : No warppoints
Format settings, Matrix : Custom
Codec ID : XVID
Codec ID/Hint : XviD
Duration : 2 h 33 min
Bit rate : 1 560 kb/s
Width : 720 pixels
Height : 304 pixels
Display aspect ratio : 2.35:1
Frame rate : 23.976 (23976/1000) FPS
Color space : YUV
Chroma subsampling : 4:2:0
Bit depth : 8 bits
Scan type : Progressive
Compression mode : Lossy
Bits/(Pixel*Frame) : 0.297
Stream size : 1.67 GiB (77%)
Writing library : XviD 1.2.1 (UTC 2008-12-04)

Audio
ID : 1
Format : AC-3
Format/Info : Audio Coding 3
Mode extension : CM (complete main)
Format settings, Endianness : Big
Codec ID : 2000
Duration : 2 h 33 min
Bit rate mode : Constant
Bit rate : 384 kb/s
Channel(s) : 6 channels
Channel positions : Front: L C R, Side: L R, LFE
Sampling rate : 48.0 kHz
Frame rate : 31.250 FPS (1536 spf)
Compression mode : Lossy
Stream size : 422 MiB (19%)
Alignment : Split accross interleaves
скриншот   скриншот   скриншот   скриншот  
piratbit.org



Скачать Гарри Поттер и Принц-полукровка через торрент http://trueimages.ru/img/88/2a/b6ba93c5.jpg Скачать, смотреть онлайн Гарри Поттер и Принц-полукровка бесплантно в хорошем качестве Описание: Теперь не только мир волшебников, но и мир маглов ощущает на себе все возрастающую силу Волан-де-Морта, а Хогвартс уже никак не ... 9.9 10 8
Info! Золотая раздача, скачанное не засчитывается.
Торрент: Зарегистрирован [2019-01-12 08:59] · скачан: 299 раз
Статус: √ проверено
Размер: 2.18 GB
Как cкачать? Как скачать Гарри Поттер и Принц-полукровка через торрент | UTorrent

% Раздел Тема Автор DL S | L
Фильмы [HD 720p, 1080p] (Хороший звук DUB, MVO) [ 7.76 GB ] Гарри Поттер и Принц-полукровка / Harry Potter and the Half-Blood Prince [2009 BDRip 1080p + Оригинал] Бумер Скачать
2 | 0
Ultra HD (UHD: 2K, 4K, 8K) — видео сверхвысокой чёткости [ 63.93 GB ] Гарри Поттер и Принц-полукровка / Harry Potter and the Half-Blood Prince [2009 UHD BD Remux 2160p] AVO+DVO+DUB bober100 Скачать
1 | 0
Фильмы 2009 [ 2.18 GB ] Гарри Поттер и Принц-полукровка / Harry Potter and the Half-Blood Prince [2009 DVDRip] IceDevil71 Скачать
1 | 0


Последний раз редактировалось: SD (2009-11-14 12:43), всего редактировалось 1 раз

28-11-2019 20:33  

Отключить всю рекламу на сайте

01-05-2010 16:49 Гарри Поттер и Принц-полукровка Скачать торрент  

Хороший фильмpiratbit.org



04-05-2010 18:56 Гарри Поттер и Принц-полукровка Скачать торрент  

Ребята большое спасибо все мои очень довольныpiratbit.org



20-11-2010 22:16 Гарри Поттер и Принц-полукровка Скачать торрент  

Спасибо !piratbit.org



25-07-2011 15:27 Гарри Поттер и Принц-полукровка Скачать торрент  

Спасибо!Спасибо!Спасибо!!!!! Огромнейшее!!! :)piratbit.org



12-01-2019 09:10 Гарри Поттер и Принц-полукровка Скачать торрент  

спасибо за ностальгиюpiratbit.org



    Дорогой пользователь! Огромная просьба, поблагодарите релизера, оцените раздачу и оставьте свои комментарий, если Вы скачали Гарри Поттер и Принц-полукровка через торрент бесплатно!
    Комментировать посты могут только пользователи прошедшие не сложную регистрацию
    Показать сообщения:    

    Гарри Поттер и Принц-полукровка через торрент
    Скачать бесплатно Гарри Поттер и Принц-полукровка
    Гарри Поттер и Принц-полукровка скачать торрент
    Гарри Поттер и Принц-полукровка смотреть онлайн
    Cкачать фильм Гарри Поттер и Принц-полукровка бесплатно
    Гарри Поттер и Принц-полукровка скачать торрент в хорошем качестве
    Гарри Поттер и Принц-полукровка смотреть онлайн бесплатно в хорошем качестве


    Вы не можете начинать темы
    Вы не можете отвечать на сообщения
    Вы не можете редактировать свои сообщения
    Вы не можете удалять свои сообщения
    Вы не можете голосовать в опросах
    Вы не можете прикреплять файлы к сообщениям
    Вы можете скачивать файлы