новый адрес
Мега распродажа FORZA HORIZON 4 ULTIMATE+ВСЕ DLC+ОНЛАЙН всего за 499р. 349 руб. (супер цена). Внимание количество ограничено!!!

iTunes

1+1

iTunes

мы

iTunes

1

iTunes

Чернобыль

iTunes

Ральф против интернета

Лицензия

ПШазам

Лицензия

Игра престолов

Лицензия

30
pack

ВАЖНО

!!Акция!!

Alien_RageХит недели

RePack

Resident Evil 21

ИГРА 18+

pack

RePack

Metro:Exodus

!!Акция!!

Alien_Rage

RePack

fifa19

RePack

Assassins Creed: Odyssey

RePack

NEED FOR SPEED™ PAYBACK

3 сезон

9 сезон

Бесстыжие 9 сезон

Все сериалы

все сериалы на PB.wtf

RePack

FAR CRY 5
Ребята, катастрофически не хватает 1900р. для оплаты серверов за Октябрь (всвязи с блокировками трафик упал в 3 раза), 1-2р., выручайте.
  

Динозавры. Гиганты Патагонии 3D / Dinosaurs: Giants of Patagonia 3D (Марк Фафард) [2007 г., документальный, BDRip] Anamorph SideBySide piratbit.org

Динозавры. Гиганты Патагонии 3D через торрент piratbit.org

Размер: 2.18 GB | Добавлен: 8 лет 2 мес. назад | Торрент скачан:1184 раза
Скачать  

22-08-2011 11:01 Динозавры. Гиганты Патагонии 3D Скачать торрент  

Динозавры. Гиганты Патагонии 3D / Dinosaurs: Giants of Patagonia 3D

Год выпуска: 2007
Страна: Канада
Жанр: документальный
Продолжительность: 40 мин.
Перевод: Профессиональный (одноголосый)

Режиссер: Марк Фафард
Продюссер: Карл Самсон, Carl Deschenes
Сценарий: Марк Фафард

Мировой рейтинг IMDB 5.80 (130)


Описание: Если бы не серия катаклизмов, начатая падением метеорита, наша планета до сих пор могла бы быть населена динозаврами.Вслед за профессором Рудольфо Гориа, всемирно известным Аргентинским палеонтологом, зритель посетит места его важнейших открытий в Патагонии и вернется назад во времени, чтобы увидеть рождение этих невероятных созданий. Патагония подарила нам самое большое живое существо, когда-либо бродившее по Земле — огромного травоядного Аргентинозавра, а также и его врага Гигантозавра, двуногого хищника, который легко поспорит со знаменитым Т-Рексом.

Доп. информация: Анаморф для 3д ТВ
Bluray3DRip
bit rate : 7 334 Kbps
Width : 1 920 pixels
Height : 1 080 pixels
Display aspect ratio : 16:9
Frame rate : 23.976 fps
Bit rate : 192 Kbps
Channel(s) : 2 channels

Формат 3d: Anamorph SideBySide
Порядок ракурсов: Параллельная пара

Качество: BDRip
Формат: MKV
Видео кодек: AVC
Аудио кодек: AC3
Видео: 7334 Кбит/сек;11,2 Мбит/сек;1920x1080;16:9 ; 23,976 кадр/сек
Аудио: Russian:AC-3; 192 Кбит/сек : 2 канала : Front: L R : 48,0 КГц
[Общее
Уникальный идентификатор : 174403994372946818148108179853689392741 (0x8334FCCE00D4F0D6AACF0AE7AA128E65)
Полное имя :DINOSAURS 3D.mkv
Формат : Matroska
Версия формата : Version 2
Размер файла : 2,18 Гбайт
Продолжительность : 40 м.
Общий поток : 7678 Кбит/сек
Название фильма : DINOSAURS 3D.Title0.Bluray3DRip
Дата кодирования : UTC 2010-12-12 04:53:46
Программа кодирования : DVDFab
Библиотека кодирования : libebml v0.7.8 + libmatroska v0.8.1

Видео
Идентификатор : 1
Формат : AVC
Формат/Информация : Advanced Video Codec
Профиль формата : High@L5.1
Параметр CABAC формата : Да
Параметр ReFrames формата : 1 кадр
Параметры GOP формата : M=1, N=15
Идентификатор кодека : V_MPEG4/ISO/AVC
Продолжительность : 40 м.
Вид битрейта : Переменный
Битрейт : 7334 Кбит/сек
Максимальный битрейт : 11,2 Мбит/сек
Ширина : 1920 пикс.
Высота : 1080 пикс.
Соотношение сторон : 16:9
Частота кадров : 23,976 кадр/сек
Цветовое пространство : YUV
Подвыборка цветности : 4:2:0
Битовая глубина : 8 бит
Тип развёртки : Прогрессивная
Бит/(Пиксели*Кадры) : 0.148
Размер потока : 2,08 Гбайт (96%)

Аудио
Идентификатор : 2
Формат : AC-3
Формат/Информация : Audio Coding 3
Расширение режима : CM (complete main)
Идентификатор кодека : A_AC3
Продолжительность : 40 м.
Вид битрейта : Постоянный
Битрейт : 192 Кбит/сек
Каналы : 2 канала
Расположение каналов : Front: L R
Частота : 48,0 КГц
Битовая глубина : 16 бит
Метод сжатия : С потерями
Размер потока : 55,7 Мбайт (3%)
Язык : Russian

Меню
00:00:00.000 : en:(01)00:00:00:000
00:02:16.803 : en:(02)00:02:16:803
00:03:12.692 : en:(03)00:03:12:692
00:06:32.058 : en:(04)00:06:32:058
00:07:22.942 : en:(05)00:07:22:942
00:10:43.142 : en:(06)00:10:43:142
00:14:20.860 : en:(07)00:14:20:860
00:21:51.101 : en:(08)00:21:51:101
00:25:37.077 : en:(09)00:25:37:077
00:28:45.515 : en:(10)00:28:45:515
00:31:23.923 : en:(11)00:31:23:923
00:33:12.031 : en:(12)00:33:12:031
00:35:10.650 : en:(13)00:35:10:650
00:37:07.767 : en:(14)00:37:07:767
00:39:07.887 : en:(15)00:39:07:887]



piratbit.org



Скачать Динозавры. Гиганты Патагонии 3D через торрент http://i25.fastpic.ru/big/2011/0822/bc/cd46634a1668a56dc3e9cda6bca00ebc.jpg Скачать фильм Динозавры. Гиганты Патагонии 3D через торрент бесплантно в хорошем качестве Описание: Если бы не серия катаклизмов, начатая падением метеорита, наша планета до сих пор могла бы быть населена динозаврами.Вслед ... 10 10 7
Info! Золотая раздача, скачанное не засчитывается.
Торрент: Зарегистрирован [2011-08-22 11:01] · скачан: 1 184 раз
Статус: √ проверено
Размер: 2.18 GB
Как cкачать? Как скачать Динозавры. Гиганты Патагонии 3D через торрент | qTorrent



Последний раз редактировалось: slaventi-69 (2011-08-22 13:24), всего редактировалось 3 раз(а)


>> Регистрируемся здесь <<






Отзывы и комментарии о схеме читаем и пишем здесь: ---> Отзывы и комментарии о схеме

Новые благодарочки в телеграм довольных пользователей:
скриншот   скриншот   скриншот   скриншот   скриншот

22-08-2011 12:01 Динозавры. Гиганты Патагонии 3D Скачать торрент  

slaventi-69
У Вас скриншоты: 1 920px × 1 088px, указано1920x1080?piratbit.org



22-08-2011 12:30 Динозавры. Гиганты Патагонии 3D Скачать торрент  

Может какой-то глюк ? Скрины делал на FASTPIC.ru , но Midia Info показывает

Ширина : 1920 пикс.
Высота : 1080 пикс.
Соотношение сторон : 16:9piratbit.org



07-02-2012 04:26 Динозавры. Гиганты Патагонии 3D Скачать торрент  

Скорости!piratbit.org



13-02-2012 07:16 Динозавры. Гиганты Патагонии 3D Скачать торрент  

спасибо!!piratbit.org



    Дорогой пользователь! Огромная просьба, поблагодарите релизера, оцените раздачу и оставьте свои комментарий, если Вы скачали Динозавры. Гиганты Патагонии 3D через торрент бесплатно! Внесите свою лепту в развитие PiratBit!
    Комментировать посты могут только пользователи прошедшие не сложную регистрацию
    Показать сообщения:    

    Динозавры. Гиганты Патагонии 3D через торрент
    Скачать бесплатно Динозавры. Гиганты Патагонии 3D
    Динозавры. Гиганты Патагонии 3D скачать торрент
    Динозавры. Гиганты Патагонии 3D смотреть онлайн
    Cкачать фильм Динозавры. Гиганты Патагонии 3D бесплатно
    Динозавры. Гиганты Патагонии 3D скачать торрент в хорошем качестве
    Динозавры. Гиганты Патагонии 3D смотреть онлайн бесплатно в хорошем качестве


    Вы не можете начинать темы
    Вы не можете отвечать на сообщения
    Вы не можете редактировать свои сообщения
    Вы не можете удалять свои сообщения
    Вы не можете голосовать в опросах
    Вы не можете прикреплять файлы к сообщениям
    Вы можете скачивать файлы