1 сезон

iTunes

iTunes

1

Line

MVO

iTunes

13

1 сезон

RePack

30

Deluxe

pack

Лицензия

ВАЖНО

ИГРА 18+

pack

RePack

MK11

RePack

jed

RePack

fifa19

RePack

RDR2

RePack

NEED FOR SPEED™ PAYBACK

4 сезон

9 сезон

Бесстыжие 9 сезон

Все сериалы

все сериалы на PB.wtf

RePack

FAR CRY 5

Anonymous, добрый день, мы катастрофически не успеваем собрать деньги на оплату серверов, помогите нам пожалуйста 5,10,15р., для нас важна любая помощь . В качестве благодарности мы отключим Вам всю рекламу на сайте (укажите свой ник в строку Ваше имя)!

×
  
Magnet ссылка

Любовь моя / Monamour (Тинто Брасс / Tinto Brass) [2005 г., эротика, драма, BDRip] piratbit.org

Любовь моя через торрент piratbit.org

Размер: 2.18 GB | Добавлен: 9 лет назад | Торрент скачан:436 раз
Скачать  

25-08-2011 14:48 Любовь моя Скачать торрент  

Любовь моя
Monamour




Год выпуска: 2005
Страна: Италия
Жанр: эротика, драма
Продолжительность: 01:38:19

Перевод : Профессиональный (многоголосый, закадровый)

Cубтитры: русские, английские
Оригинальная аудиодорожка: итальянский

Режиссер: Тинто Брасс / Tinto Brass

В ролях: Анна Жимская (Marta), Риккардо Марино (Leon), Марио Пароди (Dario), Нела Лучич (Sylvia), Lucia Lucchesino, Вирджиния Бэррет (Singer at Restaurant), Лео Мантовани, Массимо Карадонна, Федерико Чезарео, Маттео Андреотти, Mario Gagliardotto, Silvio Marsaglia

Описание: Это история любви девушки из Венеции по имени Марта и француза Леона. Всего пять дней длится роман между Мартой и Леоном и их чувства с каждым днем становясь все сильнее. Но у Марты есть муж, который догадывается об увлечении своей жены…

Качество: BDRip
Формат: AVI
Видео кодек: XviD
Аудио кодек: AC3
Видео: 720x384 (1.88:1), 23.976 fps, XviD build 63 ~2146 kbps avg, 0.32 bit/pixel
Аудио 1: 48 kHz, AC3 Dolby Digital, 3/2 (L,C,R,l,r) + LFE ch, ~384 kbps Russian
Аудио 2: 48 kHz, AC3 Dolby Digital, 3/2 (L,C,R,l,r) + LFE ch, ~448 kbps italiana
Аудио 3: 48 kHz, AC3 Dolby Digital, 2/0 (L,R) ch, ~192 kbps English
Complete name Lubov. moja.2005.BDRip\Lubov. moja.2005.BDRip.avi
Format : AVI
Format/Info : Audio Video Interleave
Format profile : OpenDML
File size : 2.18 GiB
Duration : 1h 38mn
Overall bit rate : 3 178 Kbps
Writing application : VirtualDubModRus 1.5.10.2 (build 2542/release)
Writing library : VirtualDubMod build 2542/release

Video
ID : 0
Format : MPEG-4 Visual
Format profile : Advanced Simple@L5
Format settings, BVOP : 2
Format settings, QPel : No
Format settings, GMC : No warppoints
Format settings, Matrix : Custom
Codec ID : XVID
Codec ID/Hint : XviD
Duration : 1h 38mn
Bit rate : 2 130 Kbps
Width : 720 pixels
Height : 384 pixels
Display aspect ratio : 1.875
Frame rate : 23.976 fps
Color space : YUV
Chroma subsampling : 4:2:0
Bit depth : 8 bits
Scan type : Progressive
Compression mode : Lossy
Bits/(Pixel*Frame) : 0.321
Stream size : 1.46 GiB (67%)
Writing library : XviD 63

Audio #1
ID : 1
Format : AC-3
Format/Info : Audio Coding 3
Mode extension : CM (complete main)
Codec ID : 2000
Duration : 1h 38mn
Bit rate mode : Constant
Bit rate : 384 Kbps
Channel(s) : 6 channels
Channel positions : Front: L C R, Side: L R, LFE
Sampling rate : 48.0 KHz
Bit depth : 16 bits
Compression mode : Lossy
Stream size : 270 MiB (12%)
Alignment : Split accross interleaves
Interleave, duration : 42 ms (1.00 video frame)
Interleave, preload duration : 500 ms

Audio #2
ID : 2
Format : AC-3
Format/Info : Audio Coding 3
Mode extension : CM (complete main)
Codec ID : 2000
Duration : 1h 38mn
Bit rate mode : Constant
Bit rate : 448 Kbps
Channel(s) : 6 channels
Channel positions : Front: L C R, Side: L R, LFE
Sampling rate : 48.0 KHz
Bit depth : 16 bits
Compression mode : Lossy
Stream size : 315 MiB (14%)
Alignment : Split accross interleaves
Interleave, duration : 42 ms (1.00 video frame)
Interleave, preload duration : 500 ms

Audio #3
ID : 3
Format : AC-3
Format/Info : Audio Coding 3
Mode extension : CM (complete main)
Codec ID : 2000
Duration : 1h 38mn
Bit rate mode : Constant
Bit rate : 192 Kbps
Channel(s) : 2 channels
Channel positions : Front: L R
Sampling rate : 48.0 KHz
Bit depth : 16 bits
Compression mode : Lossy
Stream size : 135 MiB (6%)
Alignment : Split accross interleaves
Interleave, duration : 42 ms (1.00 video frame)
Interleave, preload duration : 500 ms









piratbit.org



Скачать Любовь моя через торрент http://i1.imageban.ru/out/2011/08/25/9acc81e893ad1a8fc4a223da9b1c1875.png Скачать фильм Любовь моя через торрент бесплантно в хорошем качестве Описание: Это история любви девушки из Венеции по имени Марта и француза Леона. Всего пять дней длится роман между Мартой и Леоном и их ... 10 10 3
Info! Золотая раздача, скачанное не засчитывается.
Торрент: Зарегистрирован [2011-08-25 14:48] · скачан: 436 раз
Статус: √ проверено
Размер: 2.18 GB
Как cкачать? Как скачать Любовь моя через торрент | UTorrent

% Раздел Тема Автор DL S | L
Порно фильмы с русским переводом [ 757 MB ] Любовь моя / Monamour [2005 эротика DVDRip] delmi123 Скачать
1 | 0
Фильмы 2001-2005 [ 4.63 GB ] Любовь моя / Monamour [2005 эротика HDTV] wareznick Скачать
1 | 0
Фильмы 2001-2005 [ 1.37 GB ] Моя любовь / Monamour [2005 Эротика DVDRip лицензия] vladimirovx Скачать
1 | 0

28-11-2019 20:33  

Отключить всю рекламу на сайте


    Дорогой пользователь! Огромная просьба, поблагодарите релизера, оцените раздачу и оставьте свои комментарий, если Вы скачали Любовь моя через торрент бесплатно! Внесите свою лепту в развитие PiratBit!
    Комментировать посты могут только пользователи прошедшие не сложную регистрацию
    Показать сообщения:    

    Любовь моя через торрент
    Скачать бесплатно Любовь моя
    Любовь моя скачать торрент
    Любовь моя смотреть онлайн
    Cкачать фильм Любовь моя бесплатно
    Любовь моя скачать торрент в хорошем качестве
    Любовь моя смотреть онлайн бесплатно в хорошем качестве


    Вы не можете начинать темы
    Вы не можете отвечать на сообщения
    Вы не можете редактировать свои сообщения
    Вы не можете удалять свои сообщения
    Вы не можете голосовать в опросах
    Вы не можете прикреплять файлы к сообщениям
    Вы можете скачивать файлы