Ссылка на приватное зеркало нашего сайта всего за 1$. Внимание количество ограничено!!!

2 сезон

iTunes

iTunes

1

iTunes

iTunes

iTunes

WEBRip

iTunes

30
pack

Вам бонус

ВАЖНО

!!Акция!!

Alien_RageХит недели

RePack

Horizon Zero Dawn

ИГРА 18+

pack

RePack

jed

!!Акция!!

Alien_Rage

RePack

fifa19

RePack

Assassins Creed: Odyssey

RePack

NEED FOR SPEED™ PAYBACK

4 сезон

9 сезон

Бесстыжие 9 сезон

Все сериалы

все сериалы на PB.wtf

RePack

FAR CRY 5
  

Демон смерти / Grim Reaper (Майкл Фейфер) [2007 г., ужасы, DVDRip] piratbit.org

Демон смерти через торрент piratbit.org

Размер: 1.36 GB | Добавлен: 9 лет 1 мес. назад | Торрент скачан:31 раз
Скачать  

26-08-2011 08:21 Демон смерти Скачать торрент  

Демон смерти / Grim Reaper Год выпуска: 2007
Страна: США
Жанр: ужасы
Продолжительность: 01:21:17
Перевод: любительский (двухголосый)

Режиссер: Майкл Фейфер
Продюссер: Майкл Фейфер, Дэниэл Керри
Сценарий: Эллис Уолкер
В ролях: Чериш Ли, Брент Фидлер, Бенджамин Питтс, Ник Матис, Ребекка Брандес, Майк Корич

Бюджет: $1 000 000

R
-Лицам до 17 лет обязательно присутствие взрослого
Мировой рейтинг IMDB 2.40 (529)



Все мы смертны, и рано или поздно за каждым из нас придёт Старуха с косой. Рэйчел Уилсон чудом выживает в автомобильной катастрофе, тем самым обманув Смерть, у которой уже есть планы касательно души девушки.Рейчел пытается объяснить медперсоналу больницы, что Костлявая охотится за ней, но вместо помощи, попадает в психиатрическую лечебницу, где содержатся ещё шестеро «счастливчиков» обманувших смерть. Под покровом ночи им необходимо совладать со своими страхами, и с неизбежностью того, что Смерть так просто не отступит от своих замыслов..

Качество: DVDRip
Формат: AVI
Видео кодек: XviD
Аудио кодек: AC3
Видео: MPEG4, XviD, 704x384 (1.850), 25.000 fps, 2 165 Kbps (0.320 bit/pixel)
Аудио: AC-3, 48.0 KHz, 6 ch, 224 Kbps, CBR
Общее
Полное имя : M:\Фильм\Демон смерти\Demon.smerti.2007.XviD.DVDRip.avi
Формат : AVI
Формат/Информация : Audio Video Interleave
Размер файла : 1,36 Гбайт
Продолжительность : 1 ч. 21 м.
Общий поток : 2398 Кбит/сек
Программа кодирования : VirtualDubMod 1.5.10.2 (build 2540/release)
Библиотека кодирования : VirtualDubMod build 2540/release

Видео
Идентификатор : 0
Формат : MPEG-4 Visual
Профиль формата : Advanced Simple@L5
Параметр BVOP формата : 3
Параметр QPel формата : Нет
Параметр GMC формата : Без точки перехода
Параметр матрицы формата : Default (MPEG)
Идентификатор кодека : XVID
Идентификатор кодека/Подсказка : XviD
Продолжительность : 1 ч. 21 м.
Битрейт : 2165 Кбит/сек
Ширина : 704 пикс.
Высота : 384 пикс.
Соотношение сторон : 1,850
Частота кадров : 25,000 кадр/сек
Цветовое пространство : YUV
Подвыборка цветности : 4:2:0
Битовая глубина : 8 бит
Тип развёртки : Прогрессивная
Метод сжатия : С потерями
Бит/(Пиксели*Кадры) : 0.320
Размер потока : 1,23 Гбайт (90%)
Библиотека кодирования : XviD 1.2.0.dev47 (UTC 2006-11-01)

Аудио
Идентификатор : 1
Формат : AC-3
Формат/Информация : Audio Coding 3
Расширение режима : CM (complete main)
Идентификатор кодека : 2000
Продолжительность : 1 ч. 21 м.
Вид битрейта : Постоянный
Битрейт : 224 Кбит/сек
Каналы : 6 каналов
Расположение каналов : Front: L C R, Side: L R, LFE
Частота : 48,0 КГц
Битовая глубина : 16 бит
Метод сжатия : С потерями
Размер потока : 130 Мбайт (9%)
Выравнивание : Разделение по промежуткам
Продолжительность промежутка : 40 мс. (1,00 видеокадр)
Время предзагрузки промежутка : 500 ms




piratbit.org



Скачать Демон смерти через торрент http://lostpic.net/images/5befaac8a1f189d9a3caff418829338f.jpg Скачать фильм Демон смерти через торрент бесплантно в хорошем качестве В ролях: Чериш Ли, Брент Фидлер, Бенджамин Питтс, Ник Матис, Ребекка Брандес, Майк Корич Бюджет: $1 000 000R-Лицам до 17 лет обязательно ... 3.7 10 6
Info! Золотая раздача, скачанное не засчитывается.
Торрент: Зарегистрирован [2011-08-26 08:21] · скачан: 31 раз
Статус: √ проверено
Размер: 1.36 GB
Как cкачать? Как скачать Демон смерти через торрент | qTorrent



Последний раз редактировалось: =GAS= (2011-08-26 08:48), всего редактировалось 4 раз(а)

28-11-2019 20:33  

Отключить всю рекламу на сайте

26-08-2011 08:22 Демон смерти Скачать торрент  

piratbit.org



26-08-2011 08:46 Демон смерти Скачать торрент  

В ролях?
Укажите какой перевод: профессиональный или любительский?piratbit.org



26-08-2011 08:54 Демон смерти Скачать торрент  

если переводить название дословно с английского- то получается Мрачный жнец....а не демон смерти....piratbit.org



26-08-2011 08:58 Демон смерти Скачать торрент  

Жалкая пародия на пункты назначения!!!piratbit.org



26-08-2011 09:57 Демон смерти Скачать торрент  

KALYANO писал(а):

Жалкая пародия на пункты назначения!!!

да ты критик,piratbit.org



26-08-2011 09:59 Демон смерти Скачать торрент  

Дословный перевод этой ахинеи Шляпко-шляпко!!!piratbit.org



26-08-2011 11:28 Демон смерти Скачать торрент  

Nastuha_13, ваш интелект заставляет жилать лучшего :(piratbit.org



26-08-2011 11:34 Демон смерти Скачать торрент  

polimorf1 писал(а):

Nastuha_13, ваш интелект заставляет жилать лучшего :(

+1piratbit.org



    Дорогой пользователь! Огромная просьба, поблагодарите релизера, оцените раздачу и оставьте свои комментарий, если Вы скачали Демон смерти через торрент бесплатно! Внесите свою лепту в развитие PiratBit!
    Комментировать посты могут только пользователи прошедшие не сложную регистрацию
    Показать сообщения:    

    Демон смерти через торрент
    Скачать бесплатно Демон смерти
    Демон смерти скачать торрент
    Демон смерти смотреть онлайн
    Cкачать фильм Демон смерти бесплатно
    Демон смерти скачать торрент в хорошем качестве
    Демон смерти смотреть онлайн бесплатно в хорошем качестве


    Вы не можете начинать темы
    Вы не можете отвечать на сообщения
    Вы не можете редактировать свои сообщения
    Вы не можете удалять свои сообщения
    Вы не можете голосовать в опросах
    Вы не можете прикреплять файлы к сообщениям
    Вы можете скачивать файлы