Лицензия

MVO

1

1 сезон

Лицензия

Лицензия

13

MVO

1 сезон

Deluxe Edition

pack

Рекомендуем

30

Repack

ВАЖНО

ВАЖНО

Ghostwire

RePack

jed

RePack

fifa19

RePack

RDR2

RePack

NEED FOR SPEED™ PAYBACK

RePack

Кинопоиск HD

 Острые козырьки 6 сезон

6 сезон

FAR CRY 6

RePack

Лицензия

MVO

1

1 сезон

1 сезон

Лицензия

  

Иван Васильевич меняет профессию (Леонид Гайдай) [1973 г., фантастика, комедия, приключения, семейный, DVD5] (восстановленный)

Иван Васильевич меняет профессию через торрент piratbit.org

Размер: 4.28 GB | Добавлен: 11 лет назад | Торрент скачан:111 раз
Смотреть онлайн Иван Васильевич меняет профессию | Скачать   

28-08-2011 19:27 Иван Васильевич меняет профессию Скачать торрент  

Иван Васильевич меняет профессию

Год выпуска: 1973
Страна: СССР
Жанр: фантастика, комедия, приключения, семейный
Продолжительность: 01:27:43

Режиссер: Леонид Гайдай
Сценарий: Владлен Бахнов, Михаил Булгаков, Леонид Гайдай


Мировой рейтинг IMDB 8.00 (4 106)


В ролях: Владимир Этуш, Александр Демьяненко, Леонид Куравлев, Юрий Яковлев, Елена Вольская, Наталья Крачковская, Валентин Грачев, Юрий Чернов, Александр Вигдоров, Анатолий Подшивалов, Алексей Калабулин, Савелий Крамаров, Михаил Пуговкин, Сергей Филиппов, Эдуард Бредун, Лариса Еремина, Наталья Кустинская, Нина Маслова, Наталья Селезнева, Виктор Уральский, Виктор Шульгин, Наталья Гурзо, Иван Жеваго

Описание: Инженер-изобретатель Тимофеев сконструировал машину времени, которая соединила его квартиру с далеким шестнадцатым веком — точнее, с палатами государя Ивана Грозного. Туда-то и попадают тезка царя пенсионер-общественник Иван Васильевич Бунша и квартирный вор Жорж Милославский.На их место в двадцатом веке «переселяется» великий государь. Поломка машины приводит ко множеству неожиданных и забавных событий...

Качество: DVD5
Формат: DVD Video
Видео кодек: MPEG2
Аудио кодек: AC3
Видео: 8000 kbps, 720x576 (4:3)
Аудио: 448 kbps, 2.0

Доп. информация: полная реставрация звука и изображения.




E:\Файлю uTorrent\Завершенные файлы\Иван Васильевич меняет профессию\VTS_03_1.VOB
General
Complete name : E:\Файлю uTorrent\Завершенные файлы\Иван Васильевич меняет профессию\VTS_03_1.VOB
Format : MPEG-PS
File size : 1 024 MiB
Duration : 22mn 44s
Overall bit rate : 6 297 Kbps
Video #224
ID : 224 (0xE0)
Format : MPEG Video
Format version : Version 2
Format profile : Main@Main
Format settings, BVOP : Yes
Format settings, Matrix : Default
Format settings, GOP : M=3, N=12
Duration : 22mn 44s
Bit rate mode : Variable
Bit rate : 5 275 Kbps
Nominal bit rate : 8 000 Kbps
Width : 720 pixels
Height : 576 pixels
Display aspect ratio : 4:3
Frame rate : 25.000 fps
Standard : PAL
Color space : YUV
Chroma subsampling : 4:2:0
Bit depth : 8 bits
Scan type : Interlaced
Scan order : Top Field First
Compression mode : Lossy
Bits/(Pixel*Frame) : 0.509
Stream size : 858 MiB (84%)
Audio #189-128
ID : 189 (0xBD)-128 (0x80)
Format : AC-3
Format/Info : Audio Coding 3
Mode extension : CM (complete main)
Muxing mode : DVD-Video
Duration : 22mn 43s
Bit rate mode : Constant
Bit rate : 448 Kbps
Channel(s) : 6 channels
Channel positions : Front: L C R, Side: L R, LFE
Sampling rate : 48.0 KHz
Bit depth : 16 bits
Compression mode : Lossy
Delay relative to video : 477ms
Stream size : 72.8 MiB (7%)
Audio #189-129
ID : 189 (0xBD)-129 (0x81)
Format : AC-3
Format/Info : Audio Coding 3
Mode extension : CM (complete main)
Muxing mode : DVD-Video
Duration : 22mn 43s
Bit rate mode : Constant
Bit rate : 448 Kbps
Channel(s) : 2 channels
Channel positions : Front: L R
Sampling rate : 48.0 KHz
Bit depth : 16 bits
Compression mode : Lossy
Delay relative to video : 475ms
Stream size : 72.8 MiB (7%)




Скачать Иван Васильевич меняет профессию через торрент http://lostpic.net/images/b4134ce2232f184c91528d7436dd17b1.jpg Скачать, смотреть онлайн Иван Васильевич меняет профессию бесплантно в хорошем качестве Описание: Инженер-изобретатель Тимофеев сконструировал машину времени, которая соединила его квартиру с далеким шестнадцатым ... 10 10 1
Info! Золотая раздача, скачанное не засчитывается.
Торрент: Зарегистрирован [2011-08-28 19:27] · скачан: 111 раз
Статус: √ проверено
Размер: 4.28 GB
Как cкачать? Как скачать Иван Васильевич меняет профессию через торрент | UTorrent

% Раздел Тема Автор DL S | L
Фильмы (BDRip, HDrip-AVC) (48-60 fps) [ 2.72 GB ] Иван Васильевич меняет профессию | | BDRip-AVC, 60fps, Original Tiberiumsun69 Скачать
2 | 0
Наши фильмы (Blu-ray, BD-Remux, HDDVD) [ 21.13 GB ] Иван Васильевич меняет профессию | | Blu-ray, Оригинал Бумер Скачать
1 | 0
Наши фильмы (HD, WEB-DL 720p, 1080p) [ 12.63 GB ] Иван Васильевич меняет профессию | | 1080p Бумер Скачать
1 | 0
Кино СССР [ 1.46 GB ] Иван Васильевич меняет профессию | | BDRip, Оригинал akcent Скачать
1 | 0
Кино СССР [ 2.18 GB ] Иван Васильевич меняет профессию | | BDRip roller tm Скачать
1 | 0
Кино СССР [ 1.36 GB ] Иван Васильевич меняет профессию / Ivan Vasilevich menyaet professiyu | | Иван Васильевич меняет профессию / Ivan Vasilevich menyaet professiyu (Леонид Гайдай L_E_X Скачать
1 | 0
Наши фильмы (DVD фильмы) [ 5.46 GB ] Иван Васильевич меняет профессию | | Иван Васильевич меняет профессию (Леонид Гайдай Warhed Скачать
1 | 0



Последний раз редактировалось: =GAS= (2011-08-28 21:03), всего редактировалось 3 раз(а)

28-11-2019 20:33  

Отключить вcю реклaмy на сайте

28-08-2011 19:34 Иван Васильевич меняет профессию Скачать торрент  




29-08-2011 04:43 Иван Васильевич меняет профессию Скачать торрент  

у меня диск давно есть,не помню что то что бы там косяки со звуком были и изображением....



    Дорогой пользователь! Огромная просьба, поблагодарите релизера, оцените раздачу и оставьте свои комментарий, если Вы скачали Иван Васильевич меняет профессию через торрент бесплатно!!
    Комментировать посты могут только пользователи прошедшие не сложную регистрацию
    Показать сообщения:    


    Иван Васильевич меняет профессию через торрент
    Скачать бесплатно Иван Васильевич меняет профессию
    Иван Васильевич меняет профессию скачать торрент
    Иван Васильевич меняет профессию смотреть онлайн
    Cкачать фильм Иван Васильевич меняет профессию бесплатно
    Иван Васильевич меняет профессию скачать торрент в хорошем качестве
    Иван Васильевич меняет профессию смотреть онлайн бесплатно в хорошем качестве
    Вы не можете начинать темы
    Вы не можете отвечать на сообщения
    Вы не можете редактировать свои сообщения
    Вы не можете удалять свои сообщения
    Вы не можете голосовать в опросах
    Вы не можете прикреплять файлы к сообщениям
    Вы можете скачивать файлы