Доктор Стрэндж

Лицензия

Добыча

MVO

Дом дракона

1 сезон

Тор

Лицензия

Мэверик

Лицензия

Там, где раки поют

MVO

Властелин колец

1 сезон

Ultimate

pack

Рекомендуем

30

Repack

ВАЖНО

ВАЖНО

Ghostwire

RePack

jed

RePack

nioh2

RePack

RDR2

RePack

NEED FOR SPEED™ PAYBACK

RePack

скачать торрент

Кинопоиск HD

Острые козырьки 6 сезон

6 сезон

FAR CRY 6

RePack

скачать торрент

Лицензия

скачать торрент

MVO

1

1 сезон

скачать торрент

1 сезон

скачать торрент

Лицензия

  

Полосатый рейс (Владимир Фетин) [1961 г., комедия, приключения, семейный, DVD5]

Полосатый рейс через торрент piratbit.org

Размер: 4.16 GB | Добавлен: 10 лет назад | Торрент скачан:0 раз
Смотреть онлайн | Скачать   

29-08-2011 09:02 Полосатый рейс Скачать торрент  

Полосатый рейсГод выпуска: 1961
Страна: СССР
Жанр: комедия, приключения, семейный
Продолжительность: 01:24:10

Режиссер: Владимир Фетин
Сценарий: Алексей Каплер, Виктор Конецкий

Мировой рейтинг IMDB 7.30 (406)


В ролях: Алексей Грибов, Иван Дмитриев, Маргарита Назарова, Владимир Белокуров, Евгений Леонов, Николай Волков, Александр Бениаминов

Описание: На советский теплоход погрузили опасный груз — тигров и львов, а сопровождать приставили буфетчика... Во время плавания маленькая обезьянка, подаренная капитану, открывает клетки. Хищники выходят на свободу, вся команда в ужасе разбегается. И только племяннице капитана удается спасти положение, укротив диких зверей...

Качество: DVD5
Формат: DVD Video
Видео кодек: MPEG2
Аудио кодек: AC3
Видео: 5500 Kbps, 720x576, 25.000 fps, 4:3
Аудио: DD 5.1 448 Kbps, 1.0 224 Kbps
Полная реставрация изображения и звука
General
Complete name : E:\Файлю uTorrent\Завершенные файлы\Полосатый рейс\VTS_02_1.VOB
Format : MPEG-PS
File size : 1 024 MiB
Duration : 22mn 46s
Overall bit rate : 6 287 Kbps

Video
ID : 224 (0xE0)
Format : MPEG Video
Format version : Version 2
Format profile : Main@Main
Format settings, BVOP : Yes
Format settings, Matrix : Default
Format settings, GOP : M=3, N=15
Duration : 22mn 46s
Bit rate mode : Constant
Bit rate : 5 500 Kbps
Width : 720 pixels
Height : 576 pixels
Display aspect ratio : 4:3
Frame rate : 25.000 fps
Standard : PAL
Color space : YUV
Chroma subsampling : 4:2:0
Bit depth : 8 bits
Scan type : Interlaced
Scan order : Top Field First
Bits/(Pixel*Frame) : 0.530
Stream size : 894 MiB (87%)

Audio #1
ID : 128 (0x80)
Format : AC-3
Format/Info : Audio Coding 3
Mode extension : CM (complete main)
Duration : 22mn 45s
Bit rate mode : Constant
Bit rate : 448 Kbps
Channel(s) : 6 channels
Channel positions : Front: L C R, Side: L R, LFE
Sampling rate : 48.0 KHz
Video delay : -80ms
Stream size : 72.9 MiB (7%)

Audio #2
ID : 129 (0x81)
Format : AC-3
Format/Info : Audio Coding 3
Mode extension : CM (complete main)
Duration : 22mn 45s
Bit rate mode : Constant
Bit rate : 224 Kbps
Channel(s) : 1 channel
Channel positions : Front: C
Sampling rate : 48.0 KHz
Video delay : -80ms
Stream size : 36.5 MiB (4%)
--------------------------------------------------------------------------
General
Complete name : E:\Файлю uTorrent\Завершенные файлы\Полосатый рейс\VTS_02_2.VOB
Format : MPEG-PS
File size : 1 024 MiB
Duration : 22mn 46s
Overall bit rate : 6 286 Kbps

Video
ID : 224 (0xE0)
Format : MPEG Video
Format version : Version 2
Format profile : Main@Main
Format settings, BVOP : Yes
Format settings, Matrix : Default
Format settings, GOP : M=3, N=15
Duration : 22mn 46s
Bit rate mode : Constant
Bit rate : 5 500 Kbps
Width : 720 pixels
Height : 576 pixels
Display aspect ratio : 4:3
Frame rate : 25.000 fps
Standard : PAL
Color space : YUV
Chroma subsampling : 4:2:0
Bit depth : 8 bits
Scan type : Interlaced
Scan order : Top Field First
Bits/(Pixel*Frame) : 0.530
Stream size : 894 MiB (87%)

Audio #1
ID : 128 (0x80)
Format : AC-3
Format/Info : Audio Coding 3
Mode extension : CM (complete main)
Duration : 22mn 46s
Bit rate mode : Constant
Bit rate : 448 Kbps
Channel(s) : 6 channels
Channel positions : Front: L C R, Side: L R, LFE
Sampling rate : 48.0 KHz
Video delay : -392ms
Stream size : 73.0 MiB (7%)

Audio #2
ID : 129 (0x81)
Format : AC-3
Format/Info : Audio Coding 3
Mode extension : CM (complete main)
Duration : 22mn 46s
Bit rate mode : Constant
Bit rate : 224 Kbps
Channel(s) : 1 channel
Channel positions : Front: C
Sampling rate : 48.0 KHz
Video delay : -360ms
Stream size : 36.5 MiB (4%)
-----------------------------------------------------------------------
General
Complete name : E:\Файлю uTorrent\Завершенные файлы\Полосатый рейс\VTS_02_3.VOB
Format : MPEG-PS
File size : 1 024 MiB
Duration : 22mn 46s
Overall bit rate : 6 287 Kbps

Video
ID : 224 (0xE0)
Format : MPEG Video
Format version : Version 2
Format profile : Main@Main
Format settings, BVOP : Yes
Format settings, Matrix : Default
Format settings, GOP : M=3, N=15
Duration : 22mn 45s
Bit rate mode : Constant
Bit rate : 5 500 Kbps
Width : 720 pixels
Height : 576 pixels
Display aspect ratio : 4:3
Frame rate : 25.000 fps
Standard : PAL
Color space : YUV
Chroma subsampling : 4:2:0
Bit depth : 8 bits
Scan type : Interlaced
Scan order : Top Field First
Bits/(Pixel*Frame) : 0.530
Stream size : 894 MiB (87%)

Audio #1
ID : 128 (0x80)
Format : AC-3
Format/Info : Audio Coding 3
Mode extension : CM (complete main)
Duration : 22mn 46s
Bit rate mode : Constant
Bit rate : 448 Kbps
Channel(s) : 6 channels
Channel positions : Front: L C R, Side: L R, LFE
Sampling rate : 48.0 KHz
Video delay : -824ms
Stream size : 73.0 MiB (7%)

Audio #2
ID : 129 (0x81)
Format : AC-3
Format/Info : Audio Coding 3
Mode extension : CM (complete main)
Duration : 22mn 46s
Bit rate mode : Constant
Bit rate : 224 Kbps
Channel(s) : 1 channel
Channel positions : Front: C
Sampling rate : 48.0 KHz
Video delay : -728ms
Stream size : 36.5 MiB (4%)

Menu








Скачать Полосатый рейс через торрент http://lostpic.net/images/bf137e1e49266b6688df3be46f674cef.jpg Скачать, смотреть онлайн Полосатый рейс бесплантно в хорошем качестве Описание: На советский теплоход погрузили опасный груз — тигров и львов, а сопровождать приставили буфетчика... Во время плавания маленькая ... 10 10 5
Info! Золотая раздача, скачанное не засчитывается.
Торрент: Зарегистрирован [2011-10-13 07:20] · скачан: 0 раз
Статус: √ проверено
Размер: 4.16 GB
Как cкачать? Как скачать Полосатый рейс через торрент | UTorrent

% Раздел Тема Автор DL S | L
Кино СССР [ 1.46 GB ] Полосатый рейс | | BDRip-AVC от AVP Studio AVP Studio Скачать
1 | 0
Кино СССР [ 2.18 GB ] Полосатый рейс | | 720p от AVP Studio AVP Studio Скачать
1 | 0
Кино СССР [ 1.09 GB ] Полосатый рейс | | BDRip от AVP Studio AVP Studio Скачать
1 | 0
Наши фильмы (Blu-ray, BD-Remux, HDDVD) [ 36.1 GB ] Полосатый рейс | | 1080p Messa-fan Скачать
1 | 0
Наши фильмы (Blu-ray, BD-Remux, HDDVD) [ 14.33 GB ] Полосатый рейс | | BD Remux Ворон Скачать
1 | 0



Последний раз редактировалось: =GAS= (2011-10-13 07:20), всего редактировалось 1 раз

28-11-2019 20:33  


Отключить вcю реклaмy на сайте, в т.ч. и в плеере онлайн просмотра!

29-08-2011 09:03 Полосатый рейс Скачать торрент  




12-10-2011 13:13 Полосатый рейс Скачать торрент  

=GAS=
Прошу встать на раздачу фильма Полосатый рейс.
в данный момент нет сидов. Заранее большое спасибо.



12-10-2011 18:26 Полосатый рейс Скачать торрент  

Перекачайте торрент, стою на раздаче!



    Дорогой пользователь! Огромная просьба, поблагодарите релизера, оцените раздачу и оставьте свои комментарий, если Вы скачали Полосатый рейс через торрент бесплатно!!
    Комментировать посты могут только пользователи прошедшие не сложную регистрацию
    Показать сообщения:    


    Полосатый рейс через торрент
    Скачать бесплатно Полосатый рейс
    Полосатый рейс скачать торрент
    Полосатый рейс смотреть онлайн
    Cкачать фильм Полосатый рейс бесплатно
    Полосатый рейс скачать торрент в хорошем качестве
    Полосатый рейс смотреть онлайн бесплатно в хорошем качестве
    Вы не можете начинать темы
    Вы не можете отвечать на сообщения
    Вы не можете редактировать свои сообщения
    Вы не можете удалять свои сообщения
    Вы не можете голосовать в опросах
    Вы не можете прикреплять файлы к сообщениям
    Вы можете скачивать файлы