1 сезон

iTunes

iTunes

1

Line

MVO

iTunes

13

1 сезон

RePack

30

Deluxe

pack

Лицензия

ВАЖНО

ИГРА 18+

pack

RePack

MK11

RePack

jed

RePack

fifa19

RePack

RDR2

RePack

NEED FOR SPEED™ PAYBACK

4 сезон

9 сезон

Бесстыжие 9 сезон

Все сериалы

все сериалы на PB.wtf

RePack

FAR CRY 5

Anonymous, добрый вечер, мы катастрофически не успеваем собрать деньги на оплату серверов, помогите нам пожалуйста 5,10,15р., для нас важна любая помощь . В качестве благодарности мы отключим Вам всю рекламу на сайте (укажите свой ник в строку Ваше имя)!

×
  
Magnet ссылка

Забытое / The Forgotten (Джозеф Рубин / Joseph Ruben) [2004 г., фантастика, триллер, DVDRip] DUB piratbit.org

Забытое через торрент piratbit.org

Размер: 1.46 GB | Добавлен: 9 лет назад | Торрент скачан:109 раз
Скачать  

29-08-2011 22:24 Забытое Скачать торрент  

Забытое
The Forgotten


Театральная версия / Theatrical Cut

«Того, кого ты помнишь, никогда не было...»



Год выпуска: 2004
Страна: США
Жанр: фантастика, триллер
Продолжительность: 01:27:52
Перевод: Профессиональный (полное дублирование)

Режиссер: Джозеф Рубин / Joseph Ruben

В ролях: Джулианна Мур, Доминик Уэст, Энтони Эдвардс, Гэри Синиз, Лайнас Роуч, Джессика Хехт, Мэттью Плезевич, Кристофер Ковалевски, Кэти Купер, Скотт Николсон

Описание: Мать-одиночка Телли Паретта ищет своего пропавшего в авиакатастрофе восьмилетнего сына. Пытаясь справиться со стрессом, она обращается к психоаналитику. Однако вместо поддержки и утешения, тот пытается убедить пациентку в том, что сын — всего лишь плод ее воображения и расстройства мозга.
Телли удается найти человека с подобным расстройством психики, который потерял дочь. Вместе им предстоит доказать, что их воспоминания не являются плодом больной фантазии. Но чем дальше заходят их поиски, тем больше фактов указывают на то, что их дети были похищены кем-то или чем-то при весьма странных обстоятельствах…

Качество: DVDRip (Исх. DVD9)
Формат: AVI
Видео кодек: XviD
Аудио кодек: AC3
Видео: 720x384 (1.88:1), 25 fps, XviD build 50 ~1915 kbps avg, 0.28 bit/pixel
Аудио: 48 kHz, AC3 Dolby Digital, 3/2 (L,C,R,l,r) + LFE ch, ~448 kbps
Complete name Zabiytoe.teatrical version.DUB.chopper887.avi
Format : AVI
Format/Info : Audio Video Interleave
File size : 1.46 GiB
Duration : 1h 27mn
Overall bit rate : 2 373 Kbps
Movie name : Zabiytoe.teatrical version.DUB.chopper887
Director : chopper887
Genre : Thriller / Fantasy
Writing application : VirtualDubMod 1.5.10.3 | www.virtualdub-fr.org || (build 2550/release)
Original source form/Name : Movie

Video
ID : 0
Format : MPEG-4 Visual
Format profile : Advanced Simple@L5
Format settings, BVOP : 2
Format settings, QPel : No
Format settings, GMC : No warppoints
Format settings, Matrix : Custom
Codec ID : XVID
Codec ID/Hint : XviD
Duration : 1h 27mn
Bit rate : 1 916 Kbps
Width : 720 pixels
Height : 384 pixels
Display aspect ratio : 1.875
Frame rate : 25.000 fps
Color space : YUV
Chroma subsampling : 4:2:0
Bit depth : 8 bits
Scan type : Progressive
Compression mode : Lossy
Bits/(Pixel*Frame) : 0.277
Stream size : 1.18 GiB (81%)
Writing library : XviD 1.2.1 (UTC 2008-12-04)

Audio
ID : 1
Format : AC-3
Format/Info : Audio Coding 3
Mode extension : CM (complete main)
Codec ID : 2000
Duration : 1h 27mn
Bit rate mode : Constant
Bit rate : 448 Kbps
Channel(s) : 6 channels
Channel positions : Front: L C R, Side: L R, LFE
Sampling rate : 48.0 KHz
Bit depth : 16 bits
Compression mode : Lossy
Stream size : 282 MiB (19%)
Alignment : Split accross interleaves
Interleave, duration : 40 ms (1.00 video frame)
Interleave, preload duration : 500 ms





piratbit.org



Скачать Забытое через торрент http://i1.imageban.ru/out/2011/08/25/e8a422c4a70cd9775e7f5326d76a8b52.png Скачать фильм Забытое через торрент бесплантно в хорошем качестве Описание: Мать-одиночка Телли Паретта ищет своего пропавшего в авиакатастрофе восьмилетнего сына. Пытаясь справиться со стрессом, она ... 5 10 4
Info! Золотая раздача, скачанное не засчитывается.
Торрент: Зарегистрирован [2011-08-29 22:24] · скачан: 109 раз
Статус: √ проверено
Размер: 1.46 GB
Как cкачать? Как скачать Забытое через торрент | UTorrent

% Раздел Тема Автор DL S | L
Фильмы (Blu-ray, BD-Remux, HDDVD) [ 16.08 GB ] Забытое / The Forgotten [2004 BD Remux 1080p] DUB+DVO bober100 Скачать
1 | 0

28-11-2019 20:33  

Отключить всю рекламу на сайте


    Дорогой пользователь! Огромная просьба, поблагодарите релизера, оцените раздачу и оставьте свои комментарий, если Вы скачали Забытое через торрент бесплатно! Внесите свою лепту в развитие PiratBit!
    Комментировать посты могут только пользователи прошедшие не сложную регистрацию
    Показать сообщения:    

    Забытое через торрент
    Скачать бесплатно Забытое
    Забытое скачать торрент
    Забытое смотреть онлайн
    Cкачать фильм Забытое бесплатно
    Забытое скачать торрент в хорошем качестве
    Забытое смотреть онлайн бесплатно в хорошем качестве


    Вы не можете начинать темы
    Вы не можете отвечать на сообщения
    Вы не можете редактировать свои сообщения
    Вы не можете удалять свои сообщения
    Вы не можете голосовать в опросах
    Вы не можете прикреплять файлы к сообщениям
    Вы можете скачивать файлы