Ссылка на приватное зеркало всего за 1$. Внимание количество ограничено!!!

iTunes

iTunes

iTunes

1

iTunes

iTunes

iTunes

iTunes

iTunes

30
pack

Новость дня

ВАЖНО

!!Акция!!

Alien_RageХит недели

RePack

Resident Evil 21

ИГРА 18+

pack

RePack

jed

!!Акция!!

Alien_Rage

RePack

fifa19

RePack

Assassins Creed: Odyssey

RePack

NEED FOR SPEED™ PAYBACK

4 сезон

9 сезон

Бесстыжие 9 сезон

Все сериалы

все сериалы на PB.wtf

RePack

FAR CRY 5
  

Пираты Карибского моря / Pirates of the Caribbean (Гор Вербински, Роб Маршалл) [2003 - 2011, фэнтези, боевик, приключения, BDRip 1080p] / Квадрология piratbit.org

Пираты Карибского моря через торрент piratbit.org

Размер: 33.3 GB | Добавлен: 8 лет 7 мес. назад | Торрент скачан:445 раз
Скачать  

03-09-2011 12:58 Пираты Карибского моря Скачать торрент  



Название: Пираты Карибского моря: Проклятие Черной жемчужины
Оригинальное название: Pirates of the Caribbean: The Curse of the Black Pear
Год выхода: 2003
Жанр: фэнтези, боевик, приключения
Режиссер: Гор Вербински
В ролях: Джонни Депп, Джеффри Раш, Орландо Блум, Кира Найтли, Джек Девенпорт, Джонатан Прайс, Ли Аренберг, Маккензи Крук, Дамиан О`Харе, Джиллз Нью

Описание:
Жизнь харизматичного авантюриста, капитана Джека Воробья, полная увлекательных приключений, резко меняется, когда его заклятый враг — капитан Барбосса — похищает корабль Джека, Черную Жемчужину, а затем нападает на Порт Ройал и крадет прекрасную дочь губернатора, Элизабет Свонн.



Выпущено: США
Продолжительность: 02:23:14
Перевод: Профессиональный (полное дублирование)

Файл
Кодек: x264
Качество: BDRip 1080p
Видео: 1920x800, 7 533 Kbps, 23,976 fps.
Звук:
Дубляж 48 kHz, AC-3, 6 ch, 384 kbps
Оригинал 48 kHz, AC-3, 6 ch, 384 kbps (отдельно)
Субтитры: Русские, Английские




Log + Mi
PLATFORM
------------------------------
OS: Microsoft Windows NT 6.1.7601 Service Pack 1
OEMCodePage: 866
Language: RUS
DecimalSeparator: ,
Framework: 2.0.50727.5420
Processors: 8
Machine: ADMIN-PC
UserName: Admin
SystemDrive: C:

XVID4PSP
------------------------------
Version: 5.1.6.0 90*
Created: 17.12.2009 0:30:40
TempPath: F:Temp
AppPath: C:Program Files (x86)WinnydowsXviD4PSP5

FILES
------------------------------
Пираты Карибского Моря Проклятье Чёрной Жемчужины - Pirates of the Caribbean The Curse of the Black Pearl.BluRay-REMUX.mkv >
1.Пираты Карибского Моря Проклятье Чёрной Жемчужины - Pirates of the Caribbean The Curse of the Black Pearl.BluRay-REMUX.mkv

TASK
------------------------------
Format: MKV
Duration: 02:23:14:845 (206070)
VideoDecoder: DirectShowSource
Resolution: 1920x1080 > 1920x800
VCodecPreset: Custom
VEncodingMode: TwoPassSize
VideoCodec: h264 > x264
Size: 23121.8 mb > 8150.0 mb
Quality: 0.454 > 0.205
Framerate: 23.976
SourceType: PROGRESSIVE
FieldOrder: UNKNOWN
AudioCodec: AC3
AudioBitrate: 384
Samplerate: 48000
Channels: 6

------------------------------
import("C:Program Files (x86)WinnydowsXviD4PSP5dllsAviSynthfunctionsAudioFunctions.avs")
import("C:Program Files (x86)WinnydowsXviD4PSP5dllsAviSynthfunctionsVideoFunctions.avs")

DirectShowSource("F:Пираты Карибского Моря Проклятье Чёрной Жемчужины - Pirates of the Caribbean The Curse of the Black Pearl.BluRay-REMUX.mkv", fps=23.976, convertfps=true)

AutoYV12()
Crop(0, 140, -4, -140)
Lanczos4Resize(1920, 800)

VIDEO ENCODING
------------------------------
Encoding video to: F:Temp016.264
x264 7533kbps 1920x800 23.976fps (206070 frames)
...first pass...

x264.exe: --pass 1 --bitrate 7533 --level 4.1 --ref 4 --deblock -3:-3 --merange 32 --direct auto --b-adapt 2 --b-pyramid normal --trellis 2 --no-fast-pskip --psy-rd 1.0:0.2 --vbv-bufsize 50000 --vbv-maxrate 50000 --partitions p8x8,b8x8,i4x4,i8x8 --subme 10 --me umh --slow-firstpass --rc-lookahead 50 --psnr --sar 1:1 --stats "F:Temp016.log" --output NUL "F:Temp016.avs"

avs [info]: 1920x800p 1:1 @ 2500000/104271 fps (cfr)
x264 [warning]: --psnr used with psy on: results will be invalid!
x264 [warning]: --tune psnr should be used if attempting to benchmark psnr!
x264 [info]: using SAR=1/1
x264 [info]: using cpu capabilities: MMX2 SSE2Fast SSSE3 FastShuffle SSE4.2 AVX
x264 [info]: profile High, level 4.1
PLATFORM
------------------------------
OS: Microsoft Windows NT 6.1.7601 Service Pack 1
OEMCodePage: 866
Language: RUS
DecimalSeparator: ,
Framework: 2.0.50727.5420
Processors: 8
Machine: ADMIN-PC
UserName: Admin
SystemDrive: C:

XVID4PSP
------------------------------
Version: 5.1.6.0 90*
Created: 17.12.2009 0:30:40
TempPath: F:Temp
AppPath: C:Program Files (x86)WinnydowsXviD4PSP5

FILES
------------------------------
Пираты Карибского Моря Проклятье Чёрной Жемчужины - Pirates of the Caribbean The Curse of the Black Pearl.BluRay-REMUX.mkv >
1.Пираты Карибского Моря Проклятье Чёрной Жемчужины - Pirates of the Caribbean The Curse of the Black Pearl.BluRay-REMUX.mkv

TASK
------------------------------
Format: MKV
Duration: 02:23:14:845 (206070)
VideoDecoder: DirectShowSource
Resolution: 1920x1080 > 1920x800
VCodecPreset: Custom
VEncodingMode: TwoPassSize
VideoCodec: h264 > x264
Size: 23121.8 mb > 8150.0 mb
Quality: 0.454 > 0.205
Framerate: 23.976
SourceType: PROGRESSIVE
FieldOrder: UNKNOWN
AudioCodec: AC3
AudioBitrate: 384
Samplerate: 48000
Channels: 6

------------------------------
import("C:Program Files (x86)WinnydowsXviD4PSP5dllsAviSynthfunctionsAudioFunctions.avs")
import("C:Program Files (x86)WinnydowsXviD4PSP5dllsAviSynthfunctionsVideoFunctions.avs")

DirectShowSource("F:Пираты Карибского Моря Проклятье Чёрной Жемчужины - Pirates of the Caribbean The Curse of the Black Pearl.BluRay-REMUX.mkv", fps=23.976, convertfps=true)

AutoYV12()
Crop(0, 140, -4, -140)
Lanczos4Resize(1920, 800)

VIDEO ENCODING
------------------------------
Encoding video to: F:Temp017.264
x264 7533kbps 1920x800 23.976fps (206070 frames)
...first pass...

x264.exe: --pass 1 --bitrate 7533 --level 4.1 --ref 5 --deblock -3:-3 --merange 32 --direct auto --b-adapt 2 --b-pyramid normal --trellis 2 --no-fast-pskip --no-dct-decimate --psy-rd 1.0:0.2 --vbv-bufsize 50000 --vbv-maxrate 50000 --partitions p8x8,b8x8,i4x4,i8x8 --subme 10 --me umh --slow-firstpass --rc-lookahead 50 --psnr --sar 1:1 --stats "F:Temp017.log" --output NUL "F:Temp017.avs"

avs [info]: 1920x800p 1:1 @ 2500000/104271 fps (cfr)
x264 [warning]: --psnr used with psy on: results will be invalid!
x264 [warning]: --tune psnr should be used if attempting to benchmark psnr!
x264 [info]: using SAR=1/1
x264 [info]: using cpu capabilities: MMX2 SSE2Fast SSSE3 FastShuffle SSE4.2 AVX
x264 [info]: profile High, level 4.1

x264 [info]: frame I:2034 Avg QP:18.09 size:159628 PSNR Mean Y:46.10 U:49.92 V:50.60 Avg:47.03 Global:46.53
x264 [info]: frame P:61404 Avg QP:20.98 size: 59329 PSNR Mean Y:44.63 U:49.07 V:50.07 Avg:45.32 Global:44.37
x264 [info]: frame B:142632 Avg QP:23.19 size: 28628 PSNR Mean Y:42.82 U:48.36 V:49.51 Avg:43.99 Global:43.49
x264 [info]: consecutive B-frames: 2.5% 4.6% 33.2% 59.7%
x264 [info]: mb I I16..4: 14.2% 73.3% 12.5%
x264 [info]: mb P I16..4: 5.7% 13.5% 1.0% P16..4: 46.0% 19.1% 8.8% 0.0% 0.0% skip: 5.9%
x264 [info]: mb B I16..4: 0.6% 1.9% 0.1% B16..8: 44.8% 10.0% 2.1% direct: 9.8% skip:30.6% L0:43.5% L1:46.4% BI:10.1%
x264 [info]: final ratefactor: 20.16
x264 [info]: 8x8 transform intra:68.4% inter:60.8%
x264 [info]: direct mvs spatial:100.0% temporal:0.0%
x264 [info]: coded y,uvDC,uvAC intra: 71.5% 68.4% 37.3% inter: 37.7% 25.9% 7.2%
x264 [info]: i16 v,h,dc,p: 76% 7% 7% 11%
x264 [info]: i8 v,h,dc,ddl,ddr,vr,hd,vl,hu: 8% 7% 7% 10% 15% 14% 14% 12% 13%
x264 [info]: i4 v,h,dc,ddl,ddr,vr,hd,vl,hu: 8% 7% 5% 9% 16% 15% 15% 11% 14%
x264 [info]: i8c dc,h,v,p: 41% 25% 19% 15%
x264 [info]: Weighted P-Frames: Y:4.2% UV:2.3%
x264 [info]: ref P L0: 45.3% 10.3% 25.2% 8.8% 7.7% 2.5% 0.1%
x264 [info]: ref B L0: 71.6% 19.7% 6.5% 2.2%
x264 [info]: ref B L1: 92.6% 7.4%
x264 [info]: PSNR Mean Y:43.389 U:48.584 V:49.686 Avg:44.416 Global:43.755 kb/s:7493.73

x264 [total]: encoded 206070 frames, 4.00 fps, 7493.73 kb/s
...last pass...

x264.exe: --pass 2 --bitrate 7533 --level 4.1 --ref 5 --deblock -3:-3 --merange 32 --direct auto --b-adapt 2 --b-pyramid normal --trellis 2 --no-fast-pskip --no-dct-decimate --psy-rd 1.0:0.2 --vbv-bufsize 50000 --vbv-maxrate 50000 --partitions p8x8,b8x8,i4x4,i8x8 --subme 10 --me umh --slow-firstpass --rc-lookahead 50 --psnr --stats "F:Temp017.log" --sar 1:1 --output "F:Temp017.264" "F:Temp017.avs"

avs [info]: 1920x800p 1:1 @ 2500000/104271 fps (cfr)
x264 [warning]: --psnr used with psy on: results will be invalid!
x264 [warning]: --tune psnr should be used if attempting to benchmark psnr!
x264 [info]: using SAR=1/1
x264 [info]: using cpu capabilities: MMX2 SSE2Fast SSSE3 FastShuffle SSE4.2 AVX
x264 [info]: profile High, level 4.1

x264 [info]: frame I:2034 Avg QP:19.64 size:131741 PSNR Mean Y:45.04 U:49.18 V:49.98 Avg:46.02 Global:45.65
x264 [info]: frame P:61404 Avg QP:21.14 size: 59275 PSNR Mean Y:44.44 U:48.96 V:49.91 Avg:45.10 Global:44.41
x264 [info]: frame B:142632 Avg QP:23.51 size: 29336 PSNR Mean Y:42.73 U:48.29 V:49.43 Avg:43.90 Global:43.51
x264 [info]: consecutive B-frames: 2.5% 4.6% 33.2% 59.7%
x264 [info]: mb I I16..4: 12.3% 78.0% 9.7%
x264 [info]: mb P I16..4: 5.6% 14.7% 1.1% P16..4: 44.5% 19.2% 8.8% 0.0% 0.0% skip: 6.3%
x264 [info]: mb B I16..4: 0.5% 2.2% 0.2% B16..8: 44.4% 10.1% 2.1% direct: 9.4% skip:31.1% L0:43.5% L1:46.2% BI:10.3%
x264 [info]: 8x8 transform intra:71.6% inter:61.3%
x264 [info]: direct mvs spatial:99.7% temporal:0.3%
x264 [info]: coded y,uvDC,uvAC intra: 73.8% 68.6% 35.0% inter: 38.0% 26.5% 7.0%
x264 [info]: i16 v,h,dc,p: 77% 8% 6% 10%
x264 [info]: i8 v,h,dc,ddl,ddr,vr,hd,vl,hu: 7% 7% 7% 10% 16% 14% 14% 12% 13%
x264 [info]: i4 v,h,dc,ddl,ddr,vr,hd,vl,hu: 8% 7% 5% 9% 16% 16% 15% 11% 14%
x264 [info]: i8c dc,h,v,p: 40% 26% 19% 15%
x264 [info]: Weighted P-Frames: Y:4.3% UV:2.3%
x264 [info]: ref P L0: 51.9% 7.7% 21.2% 10.4% 6.6% 2.1% 0.1%
x264 [info]: ref B L0: 70.8% 20.6% 6.8% 1.8%
x264 [info]: ref B L1: 92.7% 7.3%
x264 [info]: PSNR Mean Y:43.261 U:48.498 V:49.577 Avg:44.279 Global:43.779 kb/s:7531.93

x264 [total]: encoded 206070 frames, 4.12 fps, 7531.93 kb/s

MUXING
------------------------------
Video file: F:Temp017.264
Audio file: F:Temp017_0.ac3
Muxing to: F:1.Пираты Карибского Моря Проклятье Чёрной Жемчужины - Pirates of the Caribbean The Curse of the Black Pearl.BluRay-REMUX.mkv

mkvmerge.exe: -o "F:1.Пираты Карибского Моря Проклятье Чёрной Жемчужины - Pirates of the Caribbean The Curse of the Black Pearl.BluRay-REMUX.mkv" --default-duration 0:23.976fps -d 0 -A -S "F:Temp017.264" -a 2 -D -S --no-chapters "F:Пираты Карибского Моря Проклятье Чёрной Жемчужины - Pirates of the Caribbean The Curse of the Black Pearl.BluRay-REMUX.mkv"


TIME
------------------------------
Общее время кодирования: 1 day 4 hour 26 min 26 sec
Файл получился на: 8112.56 mb
General
Complete name : F:Blu-RayПираты Карибского моря Квадрология - Pirates of the Caribbean Quadrology (2003-2011) BDRip 1080p1. Пираты Карибского моря Проклятие Черной жемчужины - Pirates of the Caribbean The Curse of the Black Pearl (2003) BDRip 1080p qzqz72.mkv
Format : Matroska
File size : 7.92 GiB
Duration : 2h 23mn
Overall bit rate : 7 918 Kbps
Encoded date : UTC 2011-08-25 14:21:48
Writing application : mkvmerge v4.0.0 ('The Stars were mine') сборка от Jun 6 2010 16:18:42
Writing library : libebml v1.0.0 + libmatroska v1.0.0

Video
ID : 1
Format : AVC
Format/Info : Advanced Video Codec
Format profile : High@L4.1
Format settings, CABAC : Yes
Format settings, ReFrames : 5 frames
Muxing mode : Container profile=Unknown@4.1
Codec ID : V_MPEG4/ISO/AVC
Duration : 2h 23mn
Bit rate : 7 533 Kbps
Width : 1 920 pixels
Height : 800 pixels
Display aspect ratio : 2.40:1
Frame rate : 23.976 fps
Color space : YUV
Chroma subsampling : 4:2:0
Bit depth : 8 bits
Scan type : Progressive
Bits/(Pixel*Frame) : 0.205
Stream size : 7.38 GiB (93%)
Writing library : x264 core 116 r2057 0ba8a9c
Encoding settings : cabac=1 / ref=5 / deblock=1:-3:-3 / analyse=0x3:0x113 / me=umh / subme=10 / psy=1 / psy_rd=1.00:0.20 / mixed_ref=1 / me_range=32 / chroma_me=1 / trellis=2 / 8x8dct=1 / cqm=0 / deadzone=21,11 / fast_pskip=0 / chroma_qp_offset=-3 / threads=12 / sliced_threads=0 / nr=0 / decimate=0 / interlaced=0 / bluray_compat=0 / constrained_intra=0 / bframes=3 / b_pyramid=2 / b_adapt=2 / b_bias=0 / direct=3 / weightb=1 / open_gop=0 / weightp=2 / keyint=250 / keyint_min=23 / scenecut=40 / intra_refresh=0 / rc_lookahead=50 / rc=2pass / mbtree=1 / bitrate=7533 / ratetol=1.0 / qcomp=0.60 / qpmin=0 / qpmax=69 / qpstep=4 / cplxblur=20.0 / qblur=0.5 / vbv_maxrate=50000 / vbv_bufsize=50000 / nal_hrd=none / ip_ratio=1.40 / aq=1:1.00

Audio
ID : 2
Format : AC-3
Format/Info : Audio Coding 3
Mode extension : CM (complete main)
Codec ID : A_AC3
Duration : 2h 23mn
Bit rate mode : Constant
Bit rate : 384 Kbps
Channel(s) : 6 channels
Channel positions : Front: L C R, Side: L R, LFE
Sampling rate : 48.0 KHz
Bit depth : 16 bits
Stream size : 393 MiB (5%)
Title : Дубляж
Language : Russian

Text #1
ID : 3
Format : UTF-8
Codec ID : S_TEXT/UTF8
Codec ID/Info : UTF-8 Plain Text
Title : Русские
Language : Russian

Text #2
ID : 4
Format : UTF-8
Codec ID : S_TEXT/UTF8
Codec ID/Info : UTF-8 Plain Text
Title : Аеглийские
Language : English


Название: Пираты Карибского моря: Сундук мертвеца
Оригинальное название: UPirates of the Caribbean: Dead Man's Chest
Год выхода: 2006
Жанр: фэнтези, боевик, приключения
Режиссер: Гор Вербински
В ролях: Джонни Депп, Орландо Блум, Кира Найтли, Джек Девенпорт, Билл Найи, Джонатан Прайс, Ли Аренберг, Маккензи Крук, Кевин МакНэлли, Дэвид Бэйли

Описание:
Вновь оказавшись в ирреальном мире, лихой капитан Джек Воробей неожиданно узнает, что является должником легендарного капитана «Летучего Голландца» Дэйви Джонса. Джек должен в кратчайшие сроки решить эту проблему, иначе ему грозит вечное проклятие и рабское существование после смерти. Вдобавок ко всему, срывается свадьба Уилла Тернера и Элизабет Суонн, которые вынуждены составить Джеку компанию в его злоключениях…



Страна: США
Продолжительность: 02:30:38
Перевод: Профессиональный (полное дублирование)

Файл
Кодек: x264
Качество: BDRip 1080p
Видео: 1920x800, 7 145 Kbps, 23,976 fps,
Звук:
Дубляж 48 kHz, AC-3, 6 ch, 384 kbps
Оригинал 48 kHz, AC-3, 6 ch, 384 kbps (отдельно)
Субтитры: Русские, английские




Log + Mi
PLATFORM
------------------------------
OS: Microsoft Windows NT 6.1.7601 Service Pack 1
OEMCodePage: 866
Language: RUS
DecimalSeparator: ,
Framework: 2.0.50727.5420
Processors: 8
Machine: ADMIN-PC
UserName: Admin
SystemDrive: C:

XVID4PSP
------------------------------
Version: 5.1.6.0 90*
Created: 17.12.2009 0:30:40
TempPath: F:Temp
AppPath: C:Program Files (x86)WinnydowsXviD4PSP5

FILES
------------------------------
Пираты Карибского моря Сундук мертвеца - Pirates of the Caribbean Dead Man's Chest.BluRay-REMUX.mkv >
2. Пираты Карибского моря Сундук мертвеца - Pirates of the Caribbean Dead Man's Chest.BluRay-REMUX.mkv

TASK
------------------------------
Format: MKV
Duration: 02:30:38:997 (216719)
VideoDecoder: DirectShowSource
Resolution: 1920x1080 > 1920x800
VCodecPreset: Custom
VEncodingMode: TwoPassSize
VideoCodec: h264 > x264
Size: 25635.8 mb > 8150.0 mb
Quality: 0.479 > 0.194
Framerate: 23.976
SourceType: PROGRESSIVE
FieldOrder: UNKNOWN
AudioCodec: AC3
AudioBitrate: 384
Samplerate: 48000
Channels: 6

------------------------------
import("C:Program Files (x86)WinnydowsXviD4PSP5dllsAviSynthfunctionsAudioFunctions.avs")
import("C:Program Files (x86)WinnydowsXviD4PSP5dllsAviSynthfunctionsVideoFunctions.avs")

DirectShowSource("E:Пираты Карибского моря Сундук мертвеца - Pirates of the Caribbean Dead Man's Chest.BluRay-REMUX.mkv", fps=23.976, convertfps=true)

AutoYV12()
Crop(0, 138, -0, -138)
Lanczos4Resize(1920, 800)

VIDEO ENCODING
------------------------------
Encoding video to: F:Temp020.264
x264 7145kbps 1920x800 23.976fps (216719 frames)
...first pass...

x264.exe: --pass 1 --bitrate 7145 --level 4.1 --ref 5 --deblock -3:-3 --merange 32 --direct auto --b-adapt 2 --b-pyramid normal --trellis 2 --no-fast-pskip --no-dct-decimate --psy-rd 1.0:0.2 --vbv-bufsize 50000 --vbv-maxrate 50000 --partitions p8x8,b8x8,i4x4,i8x8 --subme 10 --me umh --slow-firstpass --rc-lookahead 50 --psnr --sar 1:1 --stats "F:Temp020.log" --output NUL "F:Temp020.avs"

avs [info]: 1920x800p 1:1 @ 2500000/104271 fps (cfr)
x264 [warning]: --psnr used with psy on: results will be invalid!
x264 [warning]: --tune psnr should be used if attempting to benchmark psnr!
x264 [info]: using SAR=1/1
x264 [info]: using cpu capabilities: MMX2 SSE2Fast SSSE3 FastShuffle SSE4.2 AVX
x264 [info]: profile High, level 4.1

x264 [info]: frame I:2208 Avg QP:18.23 size:170960 PSNR Mean Y:46.72 U:50.15 V:49.52 Avg:47.51 Global:46.70
x264 [info]: frame P:68139 Avg QP:21.48 size: 59205 PSNR Mean Y:44.89 U:49.62 V:49.34 Avg:45.90 Global:44.58
x264 [info]: frame B:146372 Avg QP:23.66 size: 24625 PSNR Mean Y:43.28 U:48.72 V:48.56 Avg:44.40 Global:43.63
x264 [info]: consecutive B-frames: 3.0% 4.0% 50.9% 42.2%
x264 [info]: mb I I16..4: 7.1% 80.7% 12.3%
x264 [info]: mb P I16..4: 1.7% 13.7% 1.0% P16..4: 43.2% 22.2% 10.8% 0.0% 0.0% skip: 7.4%
x264 [info]: mb B I16..4: 0.2% 2.0% 0.2% B16..8: 40.6% 10.9% 2.5% direct: 8.7% skip:35.0% L0:41.3% L1:45.9% BI:12.8%
x264 [info]: final ratefactor: 19.74
x264 [info]: 8x8 transform intra:83.0% inter:68.1%
x264 [info]: direct mvs spatial:100.0% temporal:0.0%
x264 [info]: coded y,uvDC,uvAC intra: 84.5% 73.2% 38.9% inter: 33.9% 20.9% 6.1%
x264 [info]: i16 v,h,dc,p: 32% 19% 12% 37%
x264 [info]: i8 v,h,dc,ddl,ddr,vr,hd,vl,hu: 10% 9% 7% 9% 13% 14% 13% 12% 13%
x264 [info]: i4 v,h,dc,ddl,ddr,vr,hd,vl,hu: 9% 10% 4% 8% 16% 15% 14% 11% 12%
x264 [info]: i8c dc,h,v,p: 41% 24% 18% 17%
x264 [info]: Weighted P-Frames: Y:4.8% UV:3.4%
x264 [info]: ref P L0: 48.3% 12.0% 23.5% 6.3% 6.6% 3.1% 0.1%
x264 [info]: ref B L0: 72.4% 19.9% 5.4% 2.3%
x264 [info]: ref B L1: 92.5% 7.5%
x264 [info]: PSNR Mean Y:43.822 U:49.019 V:48.814 Avg:44.901 Global:43.932 kb/s:7094.66

x264 [total]: encoded 216719 frames, 4.43 fps, 7094.66 kb/s
...last pass...

x264.exe: --pass 2 --bitrate 7145 --level 4.1 --ref 5 --deblock -3:-3 --merange 32 --direct auto --b-adapt 2 --b-pyramid normal --trellis 2 --no-fast-pskip --no-dct-decimate --psy-rd 1.0:0.2 --vbv-bufsize 50000 --vbv-maxrate 50000 --partitions p8x8,b8x8,i4x4,i8x8 --subme 10 --me umh --slow-firstpass --rc-lookahead 50 --psnr --stats "F:Temp020.log" --sar 1:1 --output "F:Temp020.264" "F:Temp020.avs"

avs [info]: 1920x800p 1:1 @ 2500000/104271 fps (cfr)
x264 [warning]: --psnr used with psy on: results will be invalid!
x264 [warning]: --tune psnr should be used if attempting to benchmark psnr!
x264 [info]: using SAR=1/1
x264 [info]: using cpu capabilities: MMX2 SSE2Fast SSSE3 FastShuffle SSE4.2 AVX
x264 [info]: profile High, level 4.1

x264 [info]: frame I:2208 Avg QP:19.36 size:151515 PSNR Mean Y:45.93 U:49.49 V:49.02 Avg:46.75 Global:46.26
x264 [info]: frame P:68139 Avg QP:21.58 size: 59663 PSNR Mean Y:44.71 U:49.50 V:49.38 Avg:45.73 Global:44.74
x264 [info]: frame B:146372 Avg QP:23.85 size: 25082 PSNR Mean Y:43.17 U:48.63 V:48.62 Avg:44.28 Global:43.72
x264 [info]: consecutive B-frames: 3.0% 4.0% 50.9% 42.2%
x264 [info]: mb I I16..4: 6.1% 83.6% 10.2%
x264 [info]: mb P I16..4: 1.5% 14.4% 1.1% P16..4: 42.7% 22.2% 10.7% 0.0% 0.0% skip: 7.4%
x264 [info]: mb B I16..4: 0.2% 2.2% 0.2% B16..8: 40.4% 10.9% 2.5% direct: 8.2% skip:35.5% L0:41.2% L1:45.7% BI:13.0%
x264 [info]: 8x8 transform intra:84.7% inter:69.5%
x264 [info]: direct mvs spatial:99.0% temporal:1.0%
x264 [info]: coded y,uvDC,uvAC intra: 86.7% 75.6% 40.7% inter: 34.0% 21.2% 6.1%
x264 [info]: i16 v,h,dc,p: 34% 19% 10% 36%
x264 [info]: i8 v,h,dc,ddl,ddr,vr,hd,vl,hu: 10% 9% 7% 9% 13% 14% 13% 13% 13%
x264 [info]: i4 v,h,dc,ddl,ddr,vr,hd,vl,hu: 9% 10% 4% 8% 16% 16% 15% 11% 12%
x264 [info]: i8c dc,h,v,p: 40% 24% 18% 17%
x264 [info]: Weighted P-Frames: Y:5.0% UV:3.4%
x264 [info]: ref P L0: 54.4% 9.3% 19.2% 8.9% 5.8% 2.4% 0.1%
x264 [info]: ref B L0: 71.4% 20.7% 6.2% 1.6%
x264 [info]: ref B L1: 92.7% 7.3%
x264 [info]: PSNR Mean Y:43.683 U:48.915 V:48.864 Avg:44.763 Global:44.036 kb/s:7143.49

x264 [total]: encoded 216719 frames, 4.29 fps, 7143.49 kb/s

MUXING
------------------------------
Video file: F:Temp020.264
Audio file: F:Temp020_0.ac3
Muxing to: F:2. Пираты Карибского моря Сундук мертвеца - Pirates of the Caribbean Dead Man's Chest.BluRay-REMUX.mkv

mkvmerge.exe: -o "F:2. Пираты Карибского моря Сундук мертвеца - Pirates of the Caribbean Dead Man's Chest.BluRay-REMUX.mkv" --default-duration 0:23.976fps -d 0 -A -S "F:Temp020.264" -a 2 -D -S --no-chapters "E:Пираты Карибского моря Сундук мертвеца - Pirates of the Caribbean Dead Man's Chest.BluRay-REMUX.mkv"


TIME
------------------------------
Общее время кодирования: 1 day 3 hour 50 min 23 sec
Файл получился на: 8113.17 mb
General
Complete name : F:Blu-RayПираты Карибского моря Квадрология - Pirates of the Caribbean Quadrology (2003-2011) BDRip 1080p2. Пираты Карибского моря Сундук мертвеца - Pirates of the Caribbean Dead Man's Chest (2006) BDRip 1080p qzqz72.mkv
Format : Matroska
File size : 7.92 GiB
Duration : 2h 30mn
Overall bit rate : 7 529 Kbps
Encoded date : UTC 2011-08-27 02:23:23
Writing application : mkvmerge v4.0.0 ('The Stars were mine') сборка от Jun 6 2010 16:18:42
Writing library : libebml v1.0.0 + libmatroska v1.0.0

Video
ID : 1
Format : AVC
Format/Info : Advanced Video Codec
Format profile : High@L4.1
Format settings, CABAC : Yes
Format settings, ReFrames : 5 frames
Muxing mode : Container profile=Unknown@4.1
Codec ID : V_MPEG4/ISO/AVC
Duration : 2h 30mn
Bit rate : 7 145 Kbps
Width : 1 920 pixels
Height : 800 pixels
Display aspect ratio : 2.40:1
Frame rate : 23.976 fps
Color space : YUV
Chroma subsampling : 4:2:0
Bit depth : 8 bits
Scan type : Progressive
Bits/(Pixel*Frame) : 0.194
Stream size : 7.36 GiB (93%)
Writing library : x264 core 116 r2057 0ba8a9c
Encoding settings : cabac=1 / ref=5 / deblock=1:-3:-3 / analyse=0x3:0x113 / me=umh / subme=10 / psy=1 / psy_rd=1.00:0.20 / mixed_ref=1 / me_range=32 / chroma_me=1 / trellis=2 / 8x8dct=1 / cqm=0 / deadzone=21,11 / fast_pskip=0 / chroma_qp_offset=-3 / threads=12 / sliced_threads=0 / nr=0 / decimate=0 / interlaced=0 / bluray_compat=0 / constrained_intra=0 / bframes=3 / b_pyramid=2 / b_adapt=2 / b_bias=0 / direct=3 / weightb=1 / open_gop=0 / weightp=2 / keyint=250 / keyint_min=23 / scenecut=40 / intra_refresh=0 / rc_lookahead=50 / rc=2pass / mbtree=1 / bitrate=7145 / ratetol=1.0 / qcomp=0.60 / qpmin=0 / qpmax=69 / qpstep=4 / cplxblur=20.0 / qblur=0.5 / vbv_maxrate=50000 / vbv_bufsize=50000 / nal_hrd=none / ip_ratio=1.40 / aq=1:1.00

Audio
ID : 2
Format : AC-3
Format/Info : Audio Coding 3
Mode extension : CM (complete main)
Codec ID : A_AC3
Duration : 2h 30mn
Bit rate mode : Constant
Bit rate : 384 Kbps
Channel(s) : 6 channels
Channel positions : Front: L C R, Side: L R, LFE
Sampling rate : 48.0 KHz
Bit depth : 16 bits
Stream size : 414 MiB (5%)
Title : Дубляж
Language : Russian

Text #1
ID : 3
Format : UTF-8
Codec ID : S_TEXT/UTF8
Codec ID/Info : UTF-8 Plain Text
Title : Русские
Language : Russian

Text #2
ID : 4
Format : UTF-8
Codec ID : S_TEXT/UTF8
Codec ID/Info : UTF-8 Plain Text
Title : Англлийские
Language : English


Название: Пираты Карибского моря: На краю Света
Оригинальное название: Pirates of the Caribbean: At World's End
Год выхода: 2007
Жанр: фэнтези, боевик, приключения
Режиссер: Гор Вербински
В ролях: Джонни Депп, Джеффри Раш, Орландо Блум, Кира Найтли, Джек Девенпорт, Джонатан Прайс, Ли Аренберг, Маккензи Крук, Дамиан О`Харе, Джиллз Нью

Описание:
Новые приключения Джека Спэрроу и его друзей Уилла Тернера и Элизабет Суонн. На этот раз Уиллу и Элизабет придется объединиться с самим Капитаном Барбоссой для того, чтобы отправиться на край света и спасти своего друга — Джека «Воробья». Ситуация осложняется тем, что Элизабет попадает к сингапурским пиратам…


Страна: США
Продолжительность: 02:48:30
Перевод: Профессиональный (полное дублирование)

Файл
Кодек: x264
Качество: BDRip 1080p
Видео: 1920x800, 6 346 Kbps, 23,976 fps,
Звук:
Дубляж 48 kHz, AC-3, 6 ch, 384 kbps
Оригинал 48 kHz, AC-3, 6 ch, 384 kbps (отдельно)
Субтитры: Русские, английские




Log + Mi
PLATFORM
------------------------------
OS: Microsoft Windows NT 6.1.7601 Service Pack 1
OEMCodePage: 866
Language: RUS
DecimalSeparator: ,
Framework: 2.0.50727.5420
Processors: 8
Machine: ADMIN-PC
UserName: Admin
SystemDrive: C:

XVID4PSP
------------------------------
Version: 5.1.6.0 90*
Created: 17.12.2009 0:30:40
TempPath: F:Temp
AppPath: C:Program Files (x86)WinnydowsXviD4PSP5

FILES
------------------------------
Пираты Карибского моря На краю света - Pirates Of The Caribbean At Worlds End.BluRay-REMUX.mkv >
3. Пираты Карибского моря На краю света - Pirates Of The Caribbean At Worlds End.BluRay-REMUX.mkv

TASK
------------------------------
Format: MKV
Duration: 02:48:30:068 (242399)
VideoDecoder: DirectShowSource
Resolution: 1920x1080 > 1920x800
VCodecPreset: Custom
VEncodingMode: TwoPassSize
VideoCodec: h264 > x264
Size: 30002.4 mb > 8150.0 mb
Quality: 0.501 > 0.172
Framerate: 23.976
SourceType: PROGRESSIVE
FieldOrder: UNKNOWN
AudioCodec: AC3
AudioBitrate: 384
Samplerate: 48000
Channels: 6

------------------------------
import("C:Program Files (x86)WinnydowsXviD4PSP5dllsAviSynthfunctionsAudioFunctions.avs")
import("C:Program Files (x86)WinnydowsXviD4PSP5dllsAviSynthfunctionsVideoFunctions.avs")

DirectShowSource("E:Пираты Карибского моря На краю света - Pirates Of The Caribbean At Worlds End.BluRay-REMUX.mkv", fps=23.976, convertfps=true)

AutoYV12()
Crop(0, 140, -0, -140)
Lanczos4Resize(1920, 800)

VIDEO ENCODING
------------------------------
Encoding video to: F:Temp021.264
x264 6346kbps 1920x800 23.976fps (242399 frames)
...first pass...

x264.exe: --pass 1 --bitrate 6346 --level 4.1 --ref 5 --deblock -3:-3 --merange 32 --direct auto --b-adapt 2 --b-pyramid normal --trellis 2 --no-fast-pskip --no-dct-decimate --psy-rd 1.0:0.2 --vbv-bufsize 50000 --vbv-maxrate 50000 --partitions p8x8,b8x8,i4x4,i8x8 --subme 10 --me umh --slow-firstpass --rc-lookahead 50 --psnr --sar 1:1 --stats "F:Temp021.log" --output NUL "F:Temp021.avs"

avs [info]: 1920x800p 1:1 @ 2500000/104271 fps (cfr)
x264 [warning]: --psnr used with psy on: results will be invalid!
x264 [warning]: --tune psnr should be used if attempting to benchmark psnr!
x264 [info]: using SAR=1/1
x264 [info]: using cpu capabilities: MMX2 SSE2Fast SSSE3 FastShuffle SSE4.2 AVX
x264 [info]: profile High, level 4.1

x264 [info]: frame I:2303 Avg QP:19.21 size:168505 PSNR Mean Y:45.41 U:50.40 V:49.94 Avg:46.48 Global:45.91
x264 [info]: frame P:71165 Avg QP:22.87 size: 52398 PSNR Mean Y:43.99 U:49.84 V:49.44 Avg:45.12 Global:43.72
x264 [info]: frame B:168931 Avg QP:24.59 size: 22851 PSNR Mean Y:42.11 U:48.63 V:48.46 Avg:43.36 Global:42.81
x264 [info]: consecutive B-frames: 2.4% 2.9% 33.1% 61.5%
x264 [info]: mb I I16..4: 11.9% 75.0% 13.1%
x264 [info]: mb P I16..4: 1.6% 9.2% 0.6% P16..4: 50.0% 20.6% 10.5% 0.0% 0.0% skip: 7.4%
x264 [info]: mb B I16..4: 0.1% 1.1% 0.1% B16..8: 48.1% 9.0% 1.7% direct: 7.7% skip:32.3% L0:43.8% L1:48.1% BI: 8.1%
x264 [info]: final ratefactor: 20.88
x264 [info]: 8x8 transform intra:80.4% inter:65.8%
x264 [info]: direct mvs spatial:100.0% temporal:0.0%
x264 [info]: coded y,uvDC,uvAC intra: 84.9% 66.0% 31.6% inter: 33.3% 17.8% 3.9%
x264 [info]: i16 v,h,dc,p: 28% 13% 18% 41%
x264 [info]: i8 v,h,dc,ddl,ddr,vr,hd,vl,hu: 7% 7% 5% 11% 16% 15% 14% 12% 13%
x264 [info]: i4 v,h,dc,ddl,ddr,vr,hd,vl,hu: 8% 7% 4% 9% 16% 15% 15% 12% 14%
x264 [info]: i8c dc,h,v,p: 43% 24% 18% 14%
x264 [info]: Weighted P-Frames: Y:4.2% UV:2.5%
x264 [info]: ref P L0: 43.3% 11.3% 26.0% 8.5% 8.2% 2.7% 0.1%
x264 [info]: ref B L0: 70.8% 20.2% 6.7% 2.3%
x264 [info]: ref B L1: 92.1% 7.9%
x264 [info]: PSNR Mean Y:42.693 U:49.004 V:48.765 Avg:43.906 Global:43.081 kb/s:6312.35

x264 [total]: encoded 242399 frames, 4.32 fps, 6312.35 kb/s
...last pass...

x264.exe: --pass 2 --bitrate 6346 --level 4.1 --ref 5 --deblock -3:-3 --merange 32 --direct auto --b-adapt 2 --b-pyramid normal --trellis 2 --no-fast-pskip --no-dct-decimate --psy-rd 1.0:0.2 --vbv-bufsize 50000 --vbv-maxrate 50000 --partitions p8x8,b8x8,i4x4,i8x8 --subme 10 --me umh --slow-firstpass --rc-lookahead 50 --psnr --stats "F:Temp021.log" --sar 1:1 --output "F:Temp021.264" "F:Temp021.avs"

avs [info]: 1920x800p 1:1 @ 2500000/104271 fps (cfr)
x264 [warning]: --psnr used with psy on: results will be invalid!
x264 [warning]: --tune psnr should be used if attempting to benchmark psnr!
x264 [info]: using SAR=1/1
x264 [info]: using cpu capabilities: MMX2 SSE2Fast SSSE3 FastShuffle SSE4.2 AVX
x264 [info]: profile High, level 4.1

x264 [info]: frame I:2303 Avg QP:20.65 size:139323 PSNR Mean Y:44.38 U:49.62 V:49.30 Avg:45.48 Global:45.04
x264 [info]: frame P:71165 Avg QP:23.04 size: 52434 PSNR Mean Y:43.80 U:49.70 V:49.38 Avg:44.93 Global:43.73
x264 [info]: frame B:168931 Avg QP:24.78 size: 23479 PSNR Mean Y:42.01 U:48.53 V:48.43 Avg:43.27 Global:42.81
x264 [info]: consecutive B-frames: 2.4% 2.9% 33.1% 61.5%
x264 [info]: mb I I16..4: 8.9% 80.1% 11.0%
x264 [info]: mb P I16..4: 1.4% 10.0% 0.7% P16..4: 49.0% 20.9% 10.4% 0.0% 0.0% skip: 7.6%
x264 [info]: mb B I16..4: 0.1% 1.2% 0.1% B16..8: 47.7% 9.2% 1.8% direct: 7.5% skip:32.5% L0:43.7% L1:48.1% BI: 8.2%
x264 [info]: 8x8 transform intra:82.9% inter:66.5%
x264 [info]: direct mvs spatial:99.4% temporal:0.6%
x264 [info]: coded y,uvDC,uvAC intra: 86.5% 67.1% 31.3% inter: 33.9% 18.5% 4.0%
x264 [info]: i16 v,h,dc,p: 30% 14% 14% 42%
x264 [info]: i8 v,h,dc,ddl,ddr,vr,hd,vl,hu: 7% 7% 5% 11% 16% 15% 15% 12% 13%
x264 [info]: i4 v,h,dc,ddl,ddr,vr,hd,vl,hu: 8% 7% 3% 9% 16% 16% 15% 12% 14%
x264 [info]: i8c dc,h,v,p: 42% 25% 18% 15%
x264 [info]: Weighted P-Frames: Y:4.5% UV:2.5%
x264 [info]: ref P L0: 50.3% 7.2% 21.9% 10.8% 7.3% 2.5% 0.0%
x264 [info]: ref B L0: 70.0% 20.9% 7.1% 2.0%
x264 [info]: ref B L1: 92.2% 7.8%
x264 [info]: PSNR Mean Y:42.561 U:48.883 V:48.713 Avg:43.779 Global:43.081 kb/s:6345.06

x264 [total]: encoded 242399 frames, 4.31 fps, 6345.06 kb/s

MUXING
------------------------------
Video file: F:Temp021.264
Audio file: F:Temp021_0.ac3
Muxing to: F:3. Пираты Карибского моря На краю света - Pirates Of The Caribbean At Worlds End.BluRay-REMUX.mkv

mkvmerge.exe: -o "F:3. Пираты Карибского моря На краю света - Pirates Of The Caribbean At Worlds End.BluRay-REMUX.mkv" --default-duration 0:23.976fps -d 0 -A -S "F:Temp021.264" -a 2 -D -S --no-chapters "E:Пираты Карибского моря На краю света - Pirates Of The Caribbean At Worlds End.BluRay-REMUX.mkv"


TIME
------------------------------
Общее время кодирования: 1 day 7 hour 24 min 20 sec
Файл получился на: 8112.24 mb
General
Complete name : F:Blu-RayПираты Карибского моря Квадрология - Pirates of the Caribbean Quadrology (2003-2011) BDRip 1080p3. Пираты Карибского моря На краю Света - Pirates of the Caribbean At World's End (2007) BDRip 1080p qzqz72.mkv
Format : Matroska
File size : 7.92 GiB
Duration : 2h 48mn
Overall bit rate : 6 731 Kbps
Encoded date : UTC 2011-08-28 03:27:21
Writing application : mkvmerge v4.0.0 ('The Stars were mine') сборка от Jun 6 2010 16:18:42
Writing library : libebml v1.0.0 + libmatroska v1.0.0

Video
ID : 1
Format : AVC
Format/Info : Advanced Video Codec
Format profile : High@L4.1
Format settings, CABAC : Yes
Format settings, ReFrames : 5 frames
Muxing mode : Container profile=Unknown@4.1
Codec ID : V_MPEG4/ISO/AVC
Duration : 2h 48mn
Bit rate : 6 346 Kbps
Width : 1 920 pixels
Height : 800 pixels
Display aspect ratio : 2.40:1
Frame rate : 23.976 fps
Color space : YUV
Chroma subsampling : 4:2:0
Bit depth : 8 bits
Scan type : Progressive
Bits/(Pixel*Frame) : 0.172
Stream size : 7.31 GiB (92%)
Writing library : x264 core 116 r2057 0ba8a9c
Encoding settings : cabac=1 / ref=5 / deblock=1:-3:-3 / analyse=0x3:0x113 / me=umh / subme=10 / psy=1 / psy_rd=1.00:0.20 / mixed_ref=1 / me_range=32 / chroma_me=1 / trellis=2 / 8x8dct=1 / cqm=0 / deadzone=21,11 / fast_pskip=0 / chroma_qp_offset=-3 / threads=12 / sliced_threads=0 / nr=0 / decimate=0 / interlaced=0 / bluray_compat=0 / constrained_intra=0 / bframes=3 / b_pyramid=2 / b_adapt=2 / b_bias=0 / direct=3 / weightb=1 / open_gop=0 / weightp=2 / keyint=250 / keyint_min=23 / scenecut=40 / intra_refresh=0 / rc_lookahead=50 / rc=2pass / mbtree=1 / bitrate=6346 / ratetol=1.0 / qcomp=0.60 / qpmin=0 / qpmax=69 / qpstep=4 / cplxblur=20.0 / qblur=0.5 / vbv_maxrate=50000 / vbv_bufsize=50000 / nal_hrd=none / ip_ratio=1.40 / aq=1:1.00

Audio
ID : 2
Format : AC-3
Format/Info : Audio Coding 3
Mode extension : CM (complete main)
Codec ID : A_AC3
Duration : 2h 48mn
Bit rate mode : Constant
Bit rate : 384 Kbps
Channel(s) : 6 channels
Channel positions : Front: L C R, Side: L R, LFE
Sampling rate : 48.0 KHz
Bit depth : 16 bits
Stream size : 463 MiB (6%)
Title : Дубляж
Language : Russian

Text #1
ID : 3
Format : UTF-8
Codec ID : S_TEXT/UTF8
Codec ID/Info : UTF-8 Plain Text
Title : Русские
Language : Russian

Text #2
ID : 4
Format : UTF-8
Codec ID : S_TEXT/UTF8
Codec ID/Info : UTF-8 Plain Text
Title : Английские
Language : English


Название: Пираты Карибского моря: На странных берегах
Оригинальное название: Pirates of the Caribbean: On Stranger Tides
Год выхода: 2011
Жанр: Ффэнтези, боевик, комедия, приключения
Режиссер: Роб Маршалл
В ролях: Джонни Депп, Пенелопа Крус, Джеффри Раш, Иэн МакШейн, Кевин МакНэлли, Стивен Грэм, Сэм Клафлин, Астрид Берже-Фрисби, Кит Ричардс, Ричард Гриффитс

Описание:
В новой истории о поисках истины, предательстве, вечной молодости и смертельной опасности капитану Джеку Воробью предстоит столкнуться с женщиной из своего прошлого Анжеликой. До самого конца не будет понятно, связывает ли их настоящая любовь, или же Анжелика искусно притворяется, чтобы вместе с Джеком добраться до таинственного источника вечной молодости. Она силой принуждает капитана Джека Воробья взойти на корабль «Месть Королевы Анны», которым управляет коварный злодей Черная Борода. Наш герой оказывается в ситуации, когда он не знает, чего ему бояться больше - ужасного злодея или же свою давнюю подругу.



Страна: США
Продолжительность: 02:16:23
Перевод: Профессиональный (полное дублирование)

Файл
Кодек: x264
Качество: BDRip 1080p
Видео: 1920x800, 7 931 Kbps, 23,976 fps,
Звук:
Дубляж 48 kHz, AC-3, 6 ch, 384 kbps
Оригинал 48 kHz, AC-3, 6 ch, 384 kbps (отдельно)
Субтитры: Русские, английские





Log + Mi
PLATFORM
------------------------------
OS: Microsoft Windows NT 6.1.7601 Service Pack 1
OEMCodePage: 866
Language: RUS
DecimalSeparator: ,
Framework: 2.0.50727.5420
Processors: 8
Machine: ADMIN-PC
UserName: Admin
SystemDrive: C:

XVID4PSP
------------------------------
Version: 5.1.6.0 90*
Created: 17.12.2009 0:30:40
TempPath: F:Temp
AppPath: C:Program Files (x86)WinnydowsXviD4PSP5

FILES
------------------------------
Пираты Карибского моря На странных берегах - Pirates of the Caribbean On Stranger Tides (2011) 1080p BD-Remux.mkv >
4. Пираты Карибского моря На странных берегах - Pirates of the Caribbean On Stranger Tides (2011) 1080p BD-Remux.mkv

TASK
------------------------------
Format: MKV
Duration: 02:16:23:851 (196216)
VideoDecoder: DirectShowSource
Resolution: 1920x1080 > 1920x800
VCodecPreset: Custom
VEncodingMode: TwoPassSize
VideoCodec: h264 > x264
Size: 25524.6 mb > 8150.0 mb
Quality: 0.509 > 0.215
Framerate: 23.976
SourceType: PROGRESSIVE
FieldOrder: UNKNOWN
AudioCodec: AC3
AudioBitrate: 384
Samplerate: 48000
Channels: 6

------------------------------
import("C:Program Files (x86)WinnydowsXviD4PSP5dllsAviSynthfunctionsAudioFunctions.avs")
import("C:Program Files (x86)WinnydowsXviD4PSP5dllsAviSynthfunctionsVideoFunctions.avs")

DirectShowSource("E:Пираты Карибского моря На странных берегах - Pirates of the Caribbean On Stranger Tides (2011) 1080p BD-Remux.mkv", fps=23.976, convertfps=true)

AutoYV12()
Crop(0, 140, -0, -140)
Lanczos4Resize(1920, 800)

VIDEO ENCODING
------------------------------
Encoding video to: F:Temp022.264
x264 7931kbps 1920x800 23.976fps (196216 frames)
...first pass...

x264.exe: --pass 1 --bitrate 7931 --level 4.1 --ref 5 --deblock -3:-3 --merange 32 --direct auto --b-adapt 2 --b-pyramid normal --trellis 2 --no-fast-pskip --no-dct-decimate --psy-rd 1.0:0.2 --vbv-bufsize 50000 --vbv-maxrate 50000 --partitions p8x8,b8x8,i4x4,i8x8 --subme 10 --me umh --slow-firstpass --rc-lookahead 50 --psnr --sar 1:1 --stats "F:Temp022.log" --output NUL "F:Temp022.avs"

avs [info]: 1920x800p 1:1 @ 2500000/104271 fps (cfr)
x264 [warning]: --psnr used with psy on: results will be invalid!
x264 [warning]: --tune psnr should be used if attempting to benchmark psnr!
x264 [info]: using SAR=1/1
x264 [info]: using cpu capabilities: MMX2 SSE2Fast SSSE3 FastShuffle SSE4.2 AVX
x264 [info]: profile High, level 4.1

x264 [info]: frame I:1930 Avg QP:15.25 size:224395 PSNR Mean Y:48.73 U:51.43 V:52.57 Avg:49.55 Global:49.16
x264 [info]: frame P:59150 Avg QP:18.55 size: 64587 PSNR Mean Y:46.85 U:49.66 V:51.02 Avg:47.69 Global:47.20
x264 [info]: frame B:135136 Avg QP:19.94 size: 28115 PSNR Mean Y:46.06 U:48.88 V:50.65 Avg:46.91 Global:46.45
x264 [info]: consecutive B-frames: 2.3% 4.4% 39.3% 53.9%
x264 [info]: mb I I16..4: 27.4% 52.4% 20.2%
x264 [info]: mb P I16..4: 3.0% 13.9% 1.1% P16..4: 45.6% 20.7% 11.2% 0.0% 0.0% skip: 4.5%
x264 [info]: mb B I16..4: 0.3% 1.9% 0.2% B16..8: 43.9% 11.0% 2.4% direct:10.2% skip:30.2% L0:42.8% L1:45.0% BI:12.1%
x264 [info]: final ratefactor: 17.59
x264 [info]: 8x8 transform intra:74.5% inter:63.0%
x264 [info]: direct mvs spatial:100.0% temporal:0.0%
x264 [info]: coded y,uvDC,uvAC intra: 83.0% 80.9% 56.7% inter: 33.9% 38.1% 14.5%
x264 [info]: i16 v,h,dc,p: 39% 8% 21% 31%
x264 [info]: i8 v,h,dc,ddl,ddr,vr,hd,vl,hu: 9% 9% 7% 10% 13% 13% 13% 12% 13%
x264 [info]: i4 v,h,dc,ddl,ddr,vr,hd,vl,hu: 9% 8% 5% 9% 15% 14% 14% 11% 14%
x264 [info]: i8c dc,h,v,p: 50% 20% 17% 13%
x264 [info]: Weighted P-Frames: Y:7.5% UV:6.1%
x264 [info]: ref P L0: 46.1% 9.6% 23.0% 9.2% 8.2% 3.6% 0.3%
x264 [info]: ref B L0: 69.9% 20.3% 7.4% 2.5%
x264 [info]: ref B L1: 91.1% 8.9%
x264 [info]: PSNR Mean Y:46.322 U:49.139 V:50.778 Avg:47.172 Global:46.681 kb/s:7871.81

x264 [total]: encoded 196216 frames, 3.46 fps, 7871.81 kb/s
...last pass...

x264.exe: --pass 2 --bitrate 7931 --level 4.1 --ref 5 --deblock -3:-3 --merange 32 --direct auto --b-adapt 2 --b-pyramid normal --trellis 2 --no-fast-pskip --no-dct-decimate --psy-rd 1.0:0.2 --vbv-bufsize 50000 --vbv-maxrate 50000 --partitions p8x8,b8x8,i4x4,i8x8 --subme 10 --me umh --slow-firstpass --rc-lookahead 50 --psnr --stats "F:Temp022.log" --sar 1:1 --output "F:Temp022.264" "F:Temp022.avs"

avs [info]: 1920x800p 1:1 @ 2500000/104271 fps (cfr)
x264 [warning]: --psnr used with psy on: results will be invalid!
x264 [warning]: --tune psnr should be used if attempting to benchmark psnr!
x264 [info]: using SAR=1/1
x264 [info]: using cpu capabilities: MMX2 SSE2Fast SSSE3 FastShuffle SSE4.2 AVX
x264 [info]: profile High, level 4.1

x264 [info]: frame I:1930 Avg QP:16.65 size:185042 PSNR Mean Y:47.76 U:50.43 V:51.70 Avg:48.58 Global:48.31
x264 [info]: frame P:59150 Avg QP:18.52 size: 65347 PSNR Mean Y:46.76 U:49.59 V:50.99 Avg:47.61 Global:47.26
x264 [info]: frame B:135136 Avg QP:19.98 size: 28778 PSNR Mean Y:46.00 U:48.80 V:50.60 Avg:46.85 Global:46.50
x264 [info]: consecutive B-frames: 2.3% 4.4% 39.3% 53.9%
x264 [info]: mb I I16..4: 17.9% 65.7% 16.3%
x264 [info]: mb P I16..4: 2.9% 14.8% 1.1% P16..4: 44.8% 20.5% 11.4% 0.0% 0.0% skip: 4.6%
x264 [info]: mb B I16..4: 0.3% 2.0% 0.2% B16..8: 43.8% 10.9% 2.4% direct:10.2% skip:30.1% L0:42.8% L1:44.6% BI:12.6%
x264 [info]: 8x8 transform intra:77.6% inter:62.6%
x264 [info]: direct mvs spatial:99.4% temporal:0.6%
x264 [info]: coded y,uvDC,uvAC intra: 83.9% 81.3% 56.9% inter: 34.7% 38.7% 14.8%
x264 [info]: i16 v,h,dc,p: 43% 9% 17% 31%
x264 [info]: i8 v,h,dc,ddl,ddr,vr,hd,vl,hu: 9% 9% 7% 10% 13% 13% 13% 12% 13%
x264 [info]: i4 v,h,dc,ddl,ddr,vr,hd,vl,hu: 8% 8% 5% 9% 16% 15% 14% 12% 14%
x264 [info]: i8c dc,h,v,p: 49% 20% 17% 14%
x264 [info]: Weighted P-Frames: Y:7.9% UV:6.1%
x264 [info]: ref P L0: 51.2% 8.0% 20.3% 10.3% 7.0% 3.1% 0.2%
x264 [info]: ref B L0: 69.3% 21.3% 7.4% 1.9%
x264 [info]: ref B L1: 91.3% 8.7%
x264 [info]: PSNR Mean Y:46.246 U:49.057 V:50.731 Avg:47.098 Global:46.731 kb/s:7929.13

x264 [total]: encoded 196216 frames, 3.78 fps, 7929.13 kb/s

MUXING
------------------------------
Video file: F:Temp022.264
Audio file: F:Temp022_0.ac3
Muxing to: F:4. Пираты Карибского моря На странных берегах - Pirates of the Caribbean On Stranger Tides (2011) 1080p BD-Remux.mkv

mkvmerge.exe: -o "F:4. Пираты Карибского моря На странных берегах - Pirates of the Caribbean On Stranger Tides (2011) 1080p BD-Remux.mkv" --default-duration 0:23.976fps -d 0 -A -S "F:Temp022.264" -a 2 -D -S --no-chapters "E:Пираты Карибского моря На странных берегах - Pirates of the Caribbean On Stranger Tides (2011) 1080p BD-Remux.mkv"


TIME
------------------------------
Общее время кодирования: 1 day 6 hour 19 min 57 sec
Файл получился на: 8112.14 mb
General
Complete name : F:Blu-RayПираты Карибского моря Квадрология - Pirates of the Caribbean Quadrology (2003-2011) BDRip 1080p4. Пираты Карибского моря На странных берегах - Pirates of the Caribbean On Stranger Tides (2011) BDRip 1080p qzqz72.mkv
Format : Matroska
File size : 7.92 GiB
Duration : 2h 16mn
Overall bit rate : 8 315 Kbps
Encoded date : UTC 2011-08-29 09:46:54
Writing application : mkvmerge v4.0.0 ('The Stars were mine') сборка от Jun 6 2010 16:18:42
Writing library : libebml v1.0.0 + libmatroska v1.0.0

Video
ID : 1
Format : AVC
Format/Info : Advanced Video Codec
Format profile : High@L4.1
Format settings, CABAC : Yes
Format settings, ReFrames : 5 frames
Format settings, GOP : M=4, N=16
Muxing mode : Container profile=Unknown@4.1
Codec ID : V_MPEG4/ISO/AVC
Duration : 2h 16mn
Bit rate : 7 931 Kbps
Width : 1 920 pixels
Height : 800 pixels
Display aspect ratio : 2.40:1
Frame rate : 23.976 fps
Color space : YUV
Chroma subsampling : 4:2:0
Bit depth : 8 bits
Scan type : Progressive
Bits/(Pixel*Frame) : 0.215
Stream size : 7.40 GiB (93%)
Writing library : x264 core 116 r2057 0ba8a9c
Encoding settings : cabac=1 / ref=5 / deblock=1:-3:-3 / analyse=0x3:0x113 / me=umh / subme=10 / psy=1 / psy_rd=1.00:0.20 / mixed_ref=1 / me_range=32 / chroma_me=1 / trellis=2 / 8x8dct=1 / cqm=0 / deadzone=21,11 / fast_pskip=0 / chroma_qp_offset=-3 / threads=12 / sliced_threads=0 / nr=0 / decimate=0 / interlaced=0 / bluray_compat=0 / constrained_intra=0 / bframes=3 / b_pyramid=2 / b_adapt=2 / b_bias=0 / direct=3 / weightb=1 / open_gop=0 / weightp=2 / keyint=250 / keyint_min=23 / scenecut=40 / intra_refresh=0 / rc_lookahead=50 / rc=2pass / mbtree=1 / bitrate=7931 / ratetol=1.0 / qcomp=0.60 / qpmin=0 / qpmax=69 / qpstep=4 / cplxblur=20.0 / qblur=0.5 / vbv_maxrate=50000 / vbv_bufsize=50000 / nal_hrd=none / ip_ratio=1.40 / aq=1:1.00

Audio
ID : 2
Format : AC-3
Format/Info : Audio Coding 3
Mode extension : CM (complete main)
Codec ID : A_AC3
Duration : 2h 16mn
Bit rate mode : Constant
Bit rate : 384 Kbps
Channel(s) : 6 channels
Channel positions : Front: L C R, Side: L R, LFE
Sampling rate : 48.0 KHz
Bit depth : 16 bits
Stream size : 375 MiB (5%)
Title : Дубляж
Language : Russian

Text #1
ID : 3
Format : UTF-8
Codec ID : S_TEXT/UTF8
Codec ID/Info : UTF-8 Plain Text
Title : Английские

Text #2
ID : 4
Format : UTF-8
Codec ID : S_TEXT/UTF8
Codec ID/Info : UTF-8 Plain Text
Title : Русские
Релиз от:
piratbit.org



Скачать Пираты Карибского моря через торрент http://i30.fastpic.ru/big/2012/0204/eb/6a606a031820f33bdbef95f2af142beb.jpg Скачать фильм Пираты Карибского моря через торрент бесплантно в хорошем качестве Описание:Жизнь харизматичного авантюриста, капитана Джека Воробья, полная увлекательных приключений, резко меняется, когда его заклятый ... 10 10 8
Info! Золотая раздача, скачанное не засчитывается.
Торрент: Зарегистрирован [2011-09-03 12:58] · скачан: 445 раз
Статус: √ проверено
Размер: 33.3 GB
Как cкачать? Как скачать Пираты Карибского моря через торрент | qTorrent

% Раздел Тема Автор DL S | L
Сборники и Сиквелы (48-60 fps) [ 64.19 GB ] Пираты Карибского моря: Квадрология / Pirates of the Caribbean: Quadrilogy [2003-2011 BDRip 1080p / 60 FPS ] от R.G. HD-Films Tiberiumsun69 Скачать
3 | 1
Сборники и Сиквелы (48-60 fps) [ 15.77 GB ] Пираты Карибского моря: Квадрология / Pirates of the Caribbean Sea: Quadrilogy [2003 - 2011 BDRip-AVC / 60fps DUB] от R.G. HD-Films Ressident Скачать
5 | 1
Сборники (HD Video) [ 35.05 GB ] Пираты Карибского Моря. Квадрология / Pirates of the Caribbean. Quadrilogy [2003 2006 2007 2011 BDRip 1080p] от R.G. nICE Films genkasper Скачать
1 | 0
Сборники (HD Video) [ 55.48 GB ] Пираты Карибского Моря. Квадрология / Pirates of the Caribbean. Quadrology [2003 2006 2007 2011 ​ BDRip 1080p] NarutoSasuke Скачать
1 | 0

28-11-2019 20:33  

Отключить всю рекламу на сайте

    Дорогой пользователь! Огромная просьба, поблагодарите релизера, оцените раздачу и оставьте свои комментарий, если Вы скачали Пираты Карибского моря через торрент бесплатно! Внесите свою лепту в развитие PiratBit!
    Комментировать посты могут только пользователи прошедшие не сложную регистрацию
    Показать сообщения:    

    Пираты Карибского моря через торрент
    Скачать бесплатно Пираты Карибского моря
    Пираты Карибского моря скачать торрент
    Пираты Карибского моря смотреть онлайн
    Cкачать фильм Пираты Карибского моря бесплатно
    Пираты Карибского моря скачать торрент в хорошем качестве
    Пираты Карибского моря смотреть онлайн бесплатно в хорошем качестве


    Вы не можете начинать темы
    Вы не можете отвечать на сообщения
    Вы не можете редактировать свои сообщения
    Вы не можете удалять свои сообщения
    Вы не можете голосовать в опросах
    Вы не можете прикреплять файлы к сообщениям
    Вы можете скачивать файлы