2 сезон

iTunes

WEBRip

1

2 сезон

iTunes

1 сезон

1 сезон

RePack

30

Новинка

ВАЖНО

ИГРА 18+

pack

RePack

MK11
pack

Легкие деньги

RePack

jed

RePack

fifa19

RePack

RDR2

RePack

NEED FOR SPEED™ PAYBACK

4 сезон

9 сезон

Бесстыжие 9 сезон

Все сериалы

все сериалы на PB.wtf

RePack

FAR CRY 5

Anonymous, добрый вечер, мы не успеваем собрать деньги на оплату серверов за февраль, помогите нам пожалуйста в это трудное время. В качестве благодарности мы отключим Вам всю рекламу на сайте (укажите свой ник в строку Ваше имя)!

×
  
Magnet ссылка

Развёл на трах грудастую красотку/ Fast Boob Joint [2011 г., Big Tits, Blonde, Blowjob, PornStars, Uniform, Cowgirl, SATRip] piratbit.org

Развёл на трах грудастую красотку через торрент piratbit.org

Размер: 329 MB | Добавлен: 9 лет 6 мес. назад | Торрент скачан:281 раз
Скачать  

04-09-2011 20:53 Развёл на трах грудастую красотку Скачать торрент  


Развёл на трах грудастую красотку/ Fast Boob Joint

Год выпуска: 2011
Жанр: Big Tits, Blonde, Blowjob, PornStars, Uniform, Cowgirl
Продолжительность: 00:36:03


В ролях:Kagney Linn Karter

Описание: Для Kagney, работающего в отвратительном суставе булочки с начинкой как Чоки, судьба, хуже чем смерть! Но когда идеалистический Джонни входит и говорит ей, что она может иметь больше, Кэгни решает прыгнуть в возможности... и на его петуха!




Качество: SiteRip
Формат: MPEG-4
Видео кодек: AVC
Аудио кодек: AAC LC
Видео: AVC at 1100 Кбит/сек Aspect : 768 x 432 (1.778) at 29.970 fps
Аудио: AAC at 109 Кбит/сек Infos : 2 канала, 48,0 КГц Language : en


Общее
Полное имя : D:\Фильмы\ЭРОТИКА\btiu_kagney_linn_karter-sd169.mp4
Формат : MPEG-4
Профиль формата : Base Media
Идентификатор кодека : isom
Размер файла : 329 Мбайт
Продолжительность : 36 м.
Общий поток : 1275 Кбит/сек
Программа кодирования : Lavf52.32.0

Видео
Идентификатор : 1
Формат : AVC
Формат/Информация : Advanced Video Codec
Профиль формата : High@L3.0
Параметр CABAC формата : Да
Параметр ReFrames формата : 3 кадра
Идентификатор кодека : avc1
Идентификатор кодека/Информация : Advanced Video Coding
Продолжительность : 36 м.
Вид битрейта : Переменный
Битрейт : 1100 Кбит/сек
Ширина : 768 пикс.
Высота : 432 пикс.
Соотношение сторон : 16:9
Режим частоты кадров : Переменный
Частота кадров : 29,970 кадр/сек
Минимальная частота кадров : 7,493 кадр/сек
Максимальная частота кадров : 29,970 кадр/сек
Цветовое пространство : YUV
Подвыборка цветности : 4:2:0
Битовая глубина : 8 бит
Тип развёртки : Прогрессивная
Бит/(Пиксели*Кадры) : 0.111
Размер потока : 284 Мбайт (86%)
Язык : English
Дата пометки : UTC 2011-08-17 10:09:30

Аудио
Идентификатор : 2
Формат : AAC
Формат/Информация : Advanced Audio Codec
Профиль формата : LC
Идентификатор кодека : 40
Продолжительность : 36 м.
Вид битрейта : Переменный
Битрейт : 109 Кбит/сек
Каналы : 2 канала
Расположение каналов : Front: L R
Частота : 48,0 КГц
Метод сжатия : С потерями
Размер потока : 28,0 Мбайт (9%)
Язык : English
Дата пометки : UTC 2011-08-17 10:09:30
piratbit.org



pack Скачать Развёл на трах грудастую красотку через торрент http://i32.fastpic.ru/big/2011/0905/ba/56e7abdc8549d440f90a900ba102c9ba.png Скачать фильм Развёл на трах грудастую красоткучерез торрент бесплантно в хорошем качестве Описание: Для Kagney, работающего в отвратительном суставе булочки с начинкой как Чоки, судьба, хуже чем смерть! Но когда идеалистический ... 4.7 10 14
Info! Золотая раздача, скачанное не засчитывается.
Торрент: Зарегистрирован [2011-09-04 20:53] · скачан: 281 раз
Статус: √ проверено
Размер: 329 MB
Как cкачать? Как скачать Развёл на трах грудастую красотку через торрент | UTorrent

28-11-2019 20:33  

Отключить всю рекламу на сайте

    Дорогой пользователь! Огромная просьба, поблагодарите релизера, оцените раздачу и оставьте свои комментарий, если Вы скачали Развёл на трах грудастую красотку через торрент бесплатно! Внесите свою лепту в развитие PiratBit!
    Комментировать посты могут только пользователи прошедшие не сложную регистрацию
    Показать сообщения:    

    Развёл на трах грудастую красотку через торрент
    Скачать бесплатно Развёл на трах грудастую красотку
    Развёл на трах грудастую красотку скачать торрент
    Развёл на трах грудастую красотку смотреть онлайн
    Cкачать фильм Развёл на трах грудастую красотку бесплатно
    Развёл на трах грудастую красотку скачать торрент в хорошем качестве
    Развёл на трах грудастую красотку смотреть онлайн бесплатно в хорошем качестве


    Вы не можете начинать темы
    Вы не можете отвечать на сообщения
    Вы не можете редактировать свои сообщения
    Вы не можете удалять свои сообщения
    Вы не можете голосовать в опросах
    Вы не можете прикреплять файлы к сообщениям
    Вы можете скачивать файлы