Marvel's Avengers Deluxe Edition (супер цена) 159р. Внимание количество ограничено!!!

2 сезон

iTunes

iTunes

1

iTunes

iTunes

iTunes

WEBRip

iTunes

30
pack

Новость дня

ВАЖНО

!!Акция!!

Alien_RageХит недели

RePack

Horizon Zero Dawn

ИГРА 18+

pack

RePack

jed

!!Акция!!

Alien_Rage

RePack

fifa19

RePack

Assassins Creed: Odyssey

RePack

NEED FOR SPEED™ PAYBACK

4 сезон

9 сезон

Бесстыжие 9 сезон

Все сериалы

все сериалы на PB.wtf

RePack

FAR CRY 5
  

Мертвячка / Deadgirl (Марсель Сармиенто, Гади Хэрел) [2008 г., Ужасы, Триллер, HDRip] piratbit.org

Мертвячка через торрент piratbit.org

Качают: 1 [ 0 KB/s ]
Размер: 1.37 GB | Добавлен: 9 лет назад | Торрент скачан:320 раз
Скачать  

05-09-2011 07:08 Мертвячка Скачать торрент  

Мертвячка / Deadgirl

Год выпуска: 2008
Страна: США
Жанр: Ужасы, Триллер
Продолжительность: 01:41:37
Перевод: Любительский (двухголосый)

Режиссер: Марсель Сармиенто, Гади Хэрел

В ролях: Шайло Фернандез, Ной Сеган, Майкл Боуэн, Кендес Аккола, Эндрю ДиПальма, Эрик Поднар, Нолан Фанк, Кристина Блевинс

Описание: Два лучших друга, Рикки и Джей Ти, решили прогулять школу. Только заброшенная психиатрическая лечебница - не самое лучшее место для прогулок. Обнаружив в подвале "труп" девушки, они не стали вызывать полицию, что привело к самым неожиданным последствиям. Участник кинофестиваля в Торонто 2008 год. Провокационный фильм от продюсера "Восставшего из ада", полный отвратительных сцен. Фильм, собравший противоречивые отзывы. Фильм, которому долго не давали ход. Почему? Увидите сами.



[ [/url]

Качество: HDRip
Формат: AVI
Видео кодек: XviD
Аудио кодек: AC3
Видео: XviD, 720x304 (2.35), 23.976 fps, 1 472 Kbps (0.280 bit/pixel)
Аудио: AC-3, 48.0 KHz, 6 ch, 448 Kbps, CBR
Общее
Полное имя : D:\Торренты\ФИЛЬМЫ торента\Mertvjachka.2008.HDRip.avi
Формат : AVI
Формат/Информация : Audio Video Interleave
Размер файла : 1,37 Гбайт
Продолжительность : 1 ч. 41 м.
Общий поток : 1929 Кбит/сек
Программа кодирования : VirtualDubMod 1.5.10.2 (build 2540/release)

Видео
Идентификатор : 0
Формат : MPEG-4 Visual
Профиль формата : Advanced Simple@L5
Параметр BVOP формата : Нет
Параметр QPel формата : Нет
Параметр GMC формата : Без точки перехода
Параметр матрицы формата : Default (H.263)
Идентификатор кодека : XVID
Идентификатор кодека/Подсказка : XviD
Продолжительность : 1 ч. 41 м.
Битрейт : 1472 Кбит/сек
Ширина : 720 пикс.
Высота : 304 пикс.
Соотношение сторон : 2,35:1
Частота кадров : 23,976 кадр/сек
Цветовое пространство : YUV
Подвыборка цветности : 4:2:0
Битовая глубина : 8 бит
Тип развёртки : Прогрессивная
Метод сжатия : С потерями
Бит/(Пиксели*Кадры) : 0.280
Размер потока : 1,04 Гбайт (76%)
Библиотека кодирования : XviD 1.2.1 (UTC 2008-12-04)

Аудио
Идентификатор : 1
Формат : AC-3
Формат/Информация : Audio Coding 3
Расширение режима : CM (complete main)
Идентификатор кодека : 2000
Продолжительность : 1 ч. 41 м.
Вид битрейта : Постоянный
Битрейт : 448 Кбит/сек
Каналы : 6 каналов
Расположение каналов : Front: L C R, Side: L R, LFE
Частота : 48,0 КГц
Битовая глубина : 16 бит
Метод сжатия : С потерями
Размер потока : 326 Мбайт (23%)
Выравнивание : Разделение по промежуткам
Продолжительность промежутка : 42 мс. (1,00 видеокадр)
Время предзагрузки промежутка : 500 ms



piratbit.org



Скачать Мертвячка через торрент http://i3.imageban.ru/out/2011/09/05/594d6ff6e19d2b3dc40f8d5352efcbe0.jpg Скачать фильм Мертвячка через торрент бесплантно в хорошем качестве Описание: Два лучших друга, Рикки и Джей Ти, решили прогулять школу. Только заброшенная психиатрическая лечебница - не самое лучшее место ... 4.2 10 19
Info! Золотая раздача, скачанное не засчитывается.
Торрент: Зарегистрирован [2011-09-05 07:08] · скачан: 320 раз
Статус: √ проверено
Размер: 1.37 GB
Как cкачать? Как скачать Мертвячка через торрент | qTorrent

% Раздел Тема Автор DL S | L
Фильмы 2006-2008 [ 1.85 GB ] Мертвячка / Deadgirl [2008 DVDRip] Sудья Скачать
1 | 0
Фильмы 2006-2008 [ 1.85 GB ] Мертвячка / Deadgirl [2008 DVDRip] Shmel Скачать
1 | 0

28-11-2019 20:33  

Отключить всю рекламу на сайте

05-09-2011 09:01 Мертвячка Скачать торрент  

халОшый хфыльм piratbit.org



05-09-2011 12:19 Мертвячка Скачать торрент  

ништякpiratbit.org



05-09-2011 17:14 Мертвячка Скачать торрент  

чушь редкостная(((((((( не тратьте время(((((piratbit.org



10-09-2012 03:46 Мертвячка Скачать торрент  

Чушь для тех, кто не понимает смысла самого фильма!piratbit.org



    Дорогой пользователь! Огромная просьба, поблагодарите релизера, оцените раздачу и оставьте свои комментарий, если Вы скачали Мертвячка через торрент бесплатно! Внесите свою лепту в развитие PiratBit!
    Комментировать посты могут только пользователи прошедшие не сложную регистрацию
    Показать сообщения:    

    Мертвячка через торрент
    Скачать бесплатно Мертвячка
    Мертвячка скачать торрент
    Мертвячка смотреть онлайн
    Cкачать фильм Мертвячка бесплатно
    Мертвячка скачать торрент в хорошем качестве
    Мертвячка смотреть онлайн бесплатно в хорошем качестве


    Вы не можете начинать темы
    Вы не можете отвечать на сообщения
    Вы не можете редактировать свои сообщения
    Вы не можете удалять свои сообщения
    Вы не можете голосовать в опросах
    Вы не можете прикреплять файлы к сообщениям
    Вы можете скачивать файлы