Anonymous, добрый день, присоединяйтесь к нам в Telegram!, здесь всегда актуальный адрес сайта, оперативная поддержка и многое другое!

>

5.6

iTunes

7.4

iTunes

5.7

MVO

1

7.7

1 сезон

6.8

iTunes

7.3

1 сезон

13

6.7

1 сезон

8.3

RePack

30

ULTIMATE

pack

9.9

Лицензия

ВАЖНО

ИГРА 18+

pack

7.3

RePack

MK11

7.7

RePack

jed

7.8

RePack

fifa19

8.5

RePack

RDR2

RePack

NEED FOR SPEED™ PAYBACK

4 сезон

9 сезон

Бесстыжие 9 сезон

Все сериалы

все сериалы на PB.wtf

RePack

FAR CRY 5

Anonymous, добрый день, мы катастрофически не успеваем собрать деньги на оплату серверов, помогите нам пожалуйста 5,10,15р., для нас важна любая помощь . В качестве благодарности мы отключим Вам всю рекламу на сайте (укажите свой ник в строку Ваше имя)!

×
  
Magnet ссылка

Корабль / Ковчег / El Barco / Сезон: 1 / Серии: 1-12 (Фернандо Гонзалез Молина, Дэвид Молина) [2011, Испания, Фантастика, драма, приключения, HDTVRip] (DreamRecords) piratbit.org

Корабль через торрент piratbit.org

Размер: 8.9 GB | Добавлен: 10 лет назад | Торрент скачан:271 раз
Смотреть онлайн Корабль | Скачать    Ребята, помогите собрать деньги на оплату серверов!!!

05-09-2011 18:30 Корабль Скачать торрент  

Корабль / El Barco

Год выпуска: 2011
Страна: Испания
Производство: ANTENA 3
Жанр: Фантастика, драма, приключения
Серии (количество): 1-11 (13)
Продолжительность: ~1:15:00/серия
Озвучивание: Многоголосое любительское
Субтитры: нет

Режиссёр: Фернандо Гонзалез Молина, Дэвид Молина

В ролях: Хуан Хосе Артеро, Жизелль Кальдерон, Луис Каледжо, Марио Касас, Бернабе Фернандес, Хавьер Хернандез, Ivan Massaguй, Ирен Монтала, Марина Салас, Нюс Санс, Бланка Суарез, Хуан Пабло Шук

Описание: Мировая катастрофа вызывает катаклизм, который ведет к исчезновению Земли. На планете, наводненной водой, члены экипажа учебного корабля кажутся единственными оставшимися в живых людьми...
Спасибо всем переводчикам:chopachom, nola19, mari_sadyn, Elizabeth (главный), Filight, fana (модератор), Ray0 (модератор), NiceGirl, Manyashka, Well, vitek491, merrzavka

Озвучка: Christh, СЕСТРА, Mila Mirelli, Abarat - DreamRecords
Сэмпл
Качество: HDTVRip
Формат: AVI
Видео кодек: DivX
Аудио кодек: MP3
Видео: 720x416 (1.73:1), 25 fps, XviD MPEG-4 ~1200 kbps avg, 0.16 bit/pixel
Аудио: 48 kHz, MPEG Layer 3, 2 ch, ~256.00 kbps avg
Добавлена 12-я серия. Перекачайте торрент.
General
Complete name : E:СкачанноеTorrentEl Barco RdeamRecords.TVEl Barco.s01e01.DreamRecords.TV.avi
Format : AVI
Format/Info : Audio Video Interleave
Format profile : OpenDML
File size : 809 MiB
Duration : 1h 17mn
Overall bit rate : 1 464 Kbps
Writing application : AVI-Mux GUI 1.17.8.3, Feb 16 201019:42:50
Video
ID : 0
Format : MPEG-4 Visual
Format profile : Advanced Simple@L5
Format settings, BVOP : Yes
Format settings, QPel : No
Format settings, GMC : No warppoints
Format settings, Matrix : Default (H.263)
Muxing mode : Packed bitstream
Codec ID : XVID
Codec ID/Hint : XviD
Duration : 1h 17mn
Bit rate : 1 199 Kbps
Width : 720 pixels
Height : 416 pixels
Display aspect ratio : 16:9
Frame rate : 25.000 fps
Color space : YUV
Chroma subsampling : 4:2:0
Bit depth : 8 bits
Scan type : Progressive
Bits/(Pixel*Frame) : 0.160
Stream size : 662 MiB (82%)
Writing library : XviD 1.1.2 (UTC 2006-11-01)
Audio
ID : 1
Format : MPEG Audio
Format version : Version 1
Format profile : Layer 3
Mode : Joint stereo
Codec ID : 55
Codec ID/Hint : MP3
Duration : 1h 17mn
Bit rate mode : Constant
Bit rate : 256 Kbps
Channel(s) : 2 channels
Sampling rate : 48.0 KHz
Stream size : 141 MiB (17%)
Alignment : Aligned on interleaves
Interleave, duration : 24 ms (0.60 video frame)
Interleave, preload duration : 192 ms
Title : Корабель01-01
piratbit.org



Скачать Корабль через торрент http://s47.radikal.ru/i116/1107/c3/1d51dbc97762.jpg Скачать, смотреть онлайн Корабль бесплантно в хорошем качестве Описание: Мировая катастрофа вызывает катаклизм, который ведет к исчезновению Земли. На планете, наводненной водой, члены экипажа учебного ... 7.5 10 2
Info! Золотая раздача, скачанное не засчитывается.
Торрент: Зарегистрирован [2011-09-12 19:01] · скачан: 271 раз
Статус: √ проверено
Размер: 8.9 GB
Как cкачать? Как скачать Корабль через торрент | UTorrent

% Раздел Тема Автор DL S | L
Зарубежные сериалы [ 13.4 GB ] Корабль / Ковчег / El Barco / Сезон: 3 / Серии: 1-16 [2012 Испания HDTVRip] MVO DreamRecords wekotila Скачать
1 | 0

28-11-2019 20:33  

Отключить всю рекламу на сайте

19-09-2011 09:49 Корабль Скачать торрент  

Комменты бы по поводу сериала ....piratbit.org



20-09-2011 05:32 Корабль Скачать торрент  

Интересный или так себе?piratbit.org



02-10-2011 19:35 Корабль Скачать торрент  

сериал смотреть можно но где-же последняя серия давно уже ждуpiratbit.org



16-11-2011 09:09 Корабль Скачать торрент  

Фильмец нормальный)сериалы не смотрю,но этот зацепил)))piratbit.org



11-01-2012 03:11 Корабль Скачать торрент  

сериал супер,а где второй сезон? там уже 15 выйти должна из 17)piratbit.org



    Дорогой пользователь! Огромная просьба, поблагодарите релизера, оцените раздачу и оставьте свои комментарий, если Вы скачали Корабль через торрент бесплатно!
    Комментировать посты могут только пользователи прошедшие не сложную регистрацию
    Показать сообщения:    

    Корабль через торрент
    Скачать бесплатно Корабль
    Корабль скачать торрент
    Корабль смотреть онлайн
    Cкачать фильм Корабль бесплатно
    Корабль скачать торрент в хорошем качестве
    Корабль смотреть онлайн бесплатно в хорошем качестве


    Вы не можете начинать темы
    Вы не можете отвечать на сообщения
    Вы не можете редактировать свои сообщения
    Вы не можете удалять свои сообщения
    Вы не можете голосовать в опросах
    Вы не можете прикреплять файлы к сообщениям
    Вы можете скачивать файлы