Anonymous, доброй ночи, присоединяйтесь к нам в Telegram!, здесь всегда актуальный адрес сайта, оперативная поддержка и многое другое!

>

5.5

iTunes

7.4

iTunes

7.9

iTunes

1

7.7

1 сезон

6.8

iTunes

7.3

1 сезон

13

6.7

1 сезон

8.3

RePack

30

ULTIMATE

pack

9.9

Лицензия

ВАЖНО

ИГРА 18+

pack

7.3

RePack

MK11

7.7

RePack

jed

7.8

RePack

fifa19

8.5

RePack

RDR2

RePack

NEED FOR SPEED™ PAYBACK

4 сезон

9 сезон

Бесстыжие 9 сезон

Все сериалы

все сериалы на PB.wtf

RePack

FAR CRY 5

Anonymous, доброй ночи, мы катастрофически не успеваем собрать деньги на оплату серверов, помогите нам пожалуйста 5,10,15р., для нас важна любая помощь . В качестве благодарности мы отключим Вам всю рекламу на сайте (укажите свой ник в строку Ваше имя)!

×
  
Magnet ссылка

Торчвуд: День чуда / Torchwood: Miracle Day / Сезон: 4 / Серии 1-10 (10) (Бхарат Наллури / Bharat Nalluri) [2011 г., фантастика, драма, WEB-DLRip] (BaibaKo / Original) piratbit.org

Торчвуд: День чуда через торрент piratbit.org

Размер: 9.28 GB | Добавлен: 10 лет назад | Торрент скачан:50 раз
Смотреть онлайн Торчвуд: День чуда | Скачать    Ребята, помогите собрать деньги на оплату серверов!!!

14-09-2011 23:52 Торчвуд: День чуда Скачать торрент  

Торчвуд День чуда / Torchwood Miracle Day

Год выхода в эфир: 2011
Страна: США, Великобритания
Жанр: фантастика, драма
Продолжительность: ~ 00:50:00
Перевод: Любительский (многоголосый, закадровый) /BaibaKo/
Субтитры: Отсутствуют
Режиссер: Бхарат Наллури / Bharat Nalluri, Гай Ферланд / Guy Ferland, Гвинет Хордер-Пейтон / Gwyneth Horder-Payton
В ролях: Джон Барроумен / John Barrowman, Ив Майлз / Eve Myles, Мехи Файфер / Mekhi Phifer, Алекса Хэвинс / Alexa Havins, Билл Пуллман / Bill Pullman, Лорен Эмброуз / Lauren Ambrose, Арлин Тур / Arlene Tur и Кай Оуэн / Kai Owen и др.
Описание: В один прекрасный день никто не умер. Во всем мире НИКТО не умер. И потом на следующий день, и на следующий, и еще через день, люди продолжают стареть - они страдают и болеют, но они никогда не умирают. И в результате численность населения резко повышается, за одну ночь.
На такое количество человек не хватит ресурсов. Говорят, что через четыре месяца человеческая раса не сможет существовать. И это не может быть естественным событием - кто-то должен за этим стоять. Это гонка на время и агент ЦРУ Рекс Мэтисон начинает расследование глобального заговора.
Ответы погребены под руинами старого секретного Британского института. В то время как Рекс продолжает выспрашивать: "Что такое Торчвуд?", он оказывается втянутым в мир приключений и опасности изменить саму сущность человека. Навсегда.

Качество: WEB-DLRip
Формат: AVI [сэмпл]
Видео кодек: XviD
Аудио кодек: AC3
Видео: 720*400 (1.80), 24.000 fps, XviD MPEG-4, ~1700 kbps, 0.25 bit/pixel
Аудио #1: 48 kHz, AC3 Dolby Digital, 3/2 (L,C,R,l,r) + LFE ch, ~384.00 kbps avg |BaibaKo|
Аудио #2: 48 kHz, AC3 Dolby Digital, 3/2 (L,C,R,l,r) + LFE ch, ~384.00 kbps avg |Original|

Перевод: Татьяна Saavick
Озвучка: Блонди Скорпио, Anna_Smile, Татьяна Оболевич, Тринитрон, Styx и Алексей Кузнецов
Сведение: Vitall Digitall
Обложка: tvblog
Рип видео: svm-mfs
Все раздачи сериала







GeneralComplete name : E:\Torchwood. Miracle Day - S04 - [DD5.1] (BaibaKo)\Torchwood.S04E01.WEB-DLRip.XviD.AC3.-SVM.aviFormat : AVIFormat/Info : Audio Video InterleaveFile size : 951 MiBDuration : 54mn 1sOverall bit rate : 2 461 KbpsWriting application : VirtualDubMod 1.5.10.2 (build 2540/release)Writing library : VirtualDubMod build 2540/release
VideoID : 0Format : MPEG-4 VisualFormat profile : Advanced Simple@L5Format settings, BVOP : YesFormat settings, QPel : NoFormat settings, GMC : No warppointsFormat settings, Matrix : Default (MPEG)Muxing mode : Packed bitstreamCodec ID : XVIDCodec ID/Hint : XviDDuration : 54mn 1sBit rate : 1 679 KbpsWidth : 720 pixelsHeight : 400 pixelsDisplay aspect ratio : 16:9Frame rate : 24.000 fpsResolution : 8 bitsColorimetry : 4:2:0Scan type : ProgressiveBits/(Pixel*Frame) : 0.243Stream size : 649 MiB (68%)Writing library : XviD 1.2.1 (UTC 2008-12-04)
Audio #1ID : 1Format : AC-3Format/Info : Audio Coding 3Codec ID : 2000Duration : 54mn 1sBit rate mode : ConstantBit rate : 384 KbpsChannel(s) : 6 channelsChannel positions : Front: L C R, Surround: L R, LFESampling rate : 48.0 KHzStream size : 148 MiB (16%)Alignment : Split accross interleavesInterleave, duration : 42 ms (1.00 video frame)Interleave, preload duration : 500 ms
Audio #2ID : 2Format : AC-3Format/Info : Audio Coding 3Codec ID : 2000Duration : 54mn 1sBit rate mode : ConstantBit rate : 384 KbpsChannel(s) : 6 channelsChannel positions : Front: L C R, Surround: L R, LFESampling rate : 48.0 KHzStream size : 148 MiB (16%)Alignment : Split accross interleavesInterleave, duration : 42 ms (1.00 video frame)Interleave, preload duration : 500 ms

Внимание! Раздача ведётся путём добавления новых серий; при каждом добавлении создётся новый торрент. Чтобы начать докачку новой серии, пользователям необходимо сделать следующее:
(1) остановить скачивание,
(2) удалить старый торрент у себя из клиента (старые серии удалять не надо),
(3) скачать новый торрент и запустить его у себя в клиенте вместо старого, при этом указать клиенту путь в старую папку куда и должно происходить скачивание новых серий.
Ваш клиент при этом должен произвести хеширование (проверку) старой папки (если не производит сам - помогите ему сделать это), и будет докачивать только те серии которых у вас ещё нет. Старые серии при этом не удаляются, а продолжают раздаваться!
Eсли вы уже удалили старые серии, то предотвратить повторную закачку старых серий можно, отжав галочку в соответсвующих местах при запуске нового торрента.




piratbit.org



Скачать Торчвуд: День чуда через торрент http://lostpic.net/images/9fc5d3628cf311d4dcc77fc7a110eec4.png Скачать, смотреть онлайн Торчвуд: День чуда бесплантно в хорошем качестве Описание: В один прекрасный день никто не умер. Во всем мире НИКТО не умер. И потом на следующий день, и на следующий, и еще через день, ... 10 10 1
Info! Золотая раздача, скачанное не засчитывается.
Торрент: Зарегистрирован [2011-09-14 23:52] · скачан: 50 раз
Статус: √ проверено
Размер: 9.28 GB
Как cкачать? Как скачать Торчвуд: День чуда через торрент | UTorrent

28-11-2019 20:33  

Отключить всю рекламу на сайте

14-09-2011 23:58 Торчвуд: День чуда Скачать торрент  

конец последней серии просто улыбка перевод piratbit.org



18-09-2011 23:36 Торчвуд: День чуда Скачать торрент  

все раздачи заморожены до утра идет перенос данных на другой хард просьба набраца терпения :acutepiratbit.org



    Дорогой пользователь! Огромная просьба, поблагодарите релизера, оцените раздачу и оставьте свои комментарий, если Вы скачали Торчвуд: День чуда через торрент бесплатно!
    Комментировать посты могут только пользователи прошедшие не сложную регистрацию
    Показать сообщения:    

    Торчвуд: День чуда через торрент
    Скачать бесплатно Торчвуд: День чуда
    Торчвуд: День чуда скачать торрент
    Торчвуд: День чуда смотреть онлайн
    Cкачать фильм Торчвуд: День чуда бесплатно
    Торчвуд: День чуда скачать торрент в хорошем качестве
    Торчвуд: День чуда смотреть онлайн бесплатно в хорошем качестве


    Вы не можете начинать темы
    Вы не можете отвечать на сообщения
    Вы не можете редактировать свои сообщения
    Вы не можете удалять свои сообщения
    Вы не можете голосовать в опросах
    Вы не можете прикреплять файлы к сообщениям
    Вы можете скачивать файлы