Ссылка на приватное зеркало нашего сайта всего за 1$. Внимание количество ограничено!!!

2 сезон

iTunes

iTunes

1

iTunes

iTunes

iTunes

WEBRip

iTunes

30
pack

Вам бонус

ВАЖНО

!!Акция!!

Alien_RageХит недели

RePack

Horizon Zero Dawn

ИГРА 18+

pack

RePack

jed

!!Акция!!

Alien_Rage

RePack

fifa19

RePack

Assassins Creed: Odyssey

RePack

NEED FOR SPEED™ PAYBACK

4 сезон

9 сезон

Бесстыжие 9 сезон

Все сериалы

все сериалы на PB.wtf

RePack

FAR CRY 5
  

Я - легенда / I Am Legend (Френсис Лоуренс / Francis Lawrence) [2007 г., фантастика, триллер, драма, BDRip 720p] [Альтернативная версия / Alternative Cut] piratbit.org

Я - легенда через торрент piratbit.org

Размер: 4.85 GB | Добавлен: 9 лет назад | Торрент скачан:1308 раз
Скачать  

17-09-2011 07:56 Я - легенда Скачать торрент  

Я - легенда / I Am LegendГод выхода: 2007
Жанр: фантастика, триллер
Режисcер: Френсис Лоуренс
В ролях: Уилл Смит, Алиси Брага, Чарли Тахэн, Салли Ричардсон, Уиллоу Смит, Даррел Фостер, Эйприл Грэйс, Дэш Майок, Джоанна Нумата, Эбби, ...
Описание:
Адаптация одноименного романа Ричарда Мэтисона о неизвестном вирусе, унесшем жизни половины населения земного шара, а остальную половину превратившего в вампиров. Сюжет строится вокруг единственного уцелевшего человека с необъяснимым иммунитетом, ночами держащего бесконечную осаду упырей, а днем пытающегося найти противоядие и выяснить причины эпидемии.

Выпущено: США, Австралия | Warner Bros. Pictures
Продолжительность: 01:43:54
Файл
Качество: BDRip 720p
Контейнер: MKV
Видео: L4.1, x.264, fps 23.976, 1280x532, 3900 кбит/с
Звук #1: Русский (Дублированный), AC3, 6ch (L, C, R, Ls, Rs +LFE), 448 кбит/с |Blu-ray CEE| + (вставки из киномании)
Звук #2: Украинский (Дублированный), AC3, 6ch (L, C, R, Ls, Rs +LFE), 448 кбит/с |Blu-ray CEE| + (вставки из киномании)
Звук #3: Русский (Профессиональный (многоголосый)), AC3, 6ch (L, C, R, Ls, Rs +LFE), 384 кбит/с |Киномания|
Звук #4: Русский (Профессиональный (один голос)), AC3, 6ch (L, C, R, Ls, Rs +LFE), 384 кбит/с |Сербин|
Звук #5: Русский (Профессиональный (один голос)), AC3, 6ch (L, C, R, Ls, Rs +LFE), 384 кбит/с |Гаврилов|
Звук #6: Английский (Оригинал), AC3, 6ch (L, C, R, Ls, Rs +LFE), 640 кбит/с
Субтитры: Русские (На расш. сцены), Украинские(На расш. сцены), Русские, Украинские, Английские,
General
UniqueID : 202965674054224126999091214774790345391 (0x98B1C455CFB344F497C0FCA4D3A152AF)
Complete name : L:\HD-Films\I.Am.Legen.Alt.Cut.0dayTeam.mkv
Format : Matroska
File size : 4.85 GiB
Duration : 1h 43mn
Overall bit rate : 6 586 Kbps
Encoded date : UTC 2010-09-25 08:56:06
Writing application : mkvmerge v3.3.0 ('Language') built on Mar 24 2010 14:59:24
Writing library : libebml v0.8.0 + libmatroska v0.9.0
Video
ID : 1
Format : AVC
Format/Info : Advanced Video Codec
Format profile : High@L4.1
Format settings, CABAC : Yes
Format settings, ReFrames : 8 frames
Codec ID : V_MPEG4/ISO/AVC
Duration : 1h 43mn
Bit rate : 3 900 Kbps
Width : 1 280 pixels
Height : 532 pixels
Display aspect ratio : 2.40:1
Frame rate : 23.976 fps
Color space : YUV
Chroma subsampling : 4:2:0
Bit depth : 8 bits
Scan type : Progressive
Bits/(Pixel*Frame) : 0.245
Stream size : 2.80 GiB (58%)
Writing library : x264 core 104 r1683 62997d6
Encoding settings : cabac=1 / ref=8 / deblock=1:-3:-3 / analyse=0x3:0x113 / me=umh / subme=9 / psy=1 / psy_rd=0.70:0.00 / mixed_ref=1 / me_range=32 / chroma_me=1 / trellis=2 / 8x8dct=1 / cqm=0 / deadzone=21,11 / fast_pskip=0 / chroma_qp_offset=-2 / threads=3 / sliced_threads=0 / nr=0 / decimate=0 / interlaced=0 / constrained_intra=0 / bframes=6 / b_pyramid=2 / b_adapt=2 / b_bias=0 / direct=3 / weightb=1 / open_gop=0 / weightp=2 / keyint=250 / keyint_min=23 / scenecut=40 / intra_refresh=0 / rc=2pass / mbtree=0 / bitrate=3900 / ratetol=1.0 / qcomp=0.60 / qpmin=10 / qpmax=51 / qpstep=4 / cplxblur=20.0 / qblur=0.5 / ip_ratio=1.40 / pb_ratio=1.30 / aq=1:0.80
Language : English
Audio #1
ID : 2
Format : AC-3
Format/Info : Audio Coding 3
Mode extension : CM (complete main)
Codec ID : A_AC3
Duration : 1h 43mn
Bit rate mode : Constant
Bit rate : 448 Kbps
Channel(s) : 6 channels
Channel positions : Front: L C R, Side: L R, LFE
Sampling rate : 48.0 KHz
Bit depth : 16 bits
Compression mode : Lossy
Stream size : 333 MiB (7%)
Title : Rus Dub AC3 448 @ 5.1
Language : Russian
Audio #2
ID : 3
Format : AC-3
Format/Info : Audio Coding 3
Mode extension : CM (complete main)
Codec ID : A_AC3
Duration : 1h 43mn
Bit rate mode : Constant
Bit rate : 448 Kbps
Channel(s) : 6 channels
Channel positions : Front: L C R, Side: L R, LFE
Sampling rate : 48.0 KHz
Bit depth : 16 bits
Compression mode : Lossy
Stream size : 333 MiB (7%)
Title : Ukr Dub AC3 448 @ 5.1
Language : Ukrainian
Audio #3
ID : 4
Format : AC-3
Format/Info : Audio Coding 3
Mode extension : CM (complete main)
Codec ID : A_AC3
Duration : 1h 43mn
Bit rate mode : Constant
Bit rate : 384 Kbps
Channel(s) : 6 channels
Channel positions : Front: L C R, Side: L R, LFE
Sampling rate : 48.0 KHz
Bit depth : 16 bits
Compression mode : Lossy
Stream size : 285 MiB (6%)
Title : Kinomania AC3 384 @ 5.1
Language : Russian
Audio #4
ID : 5
Format : AC-3
Format/Info : Audio Coding 3
Mode extension : CM (complete main)
Codec ID : A_AC3
Duration : 1h 43mn
Bit rate mode : Constant
Bit rate : 384 Kbps
Channel(s) : 6 channels
Channel positions : Front: L C R, Side: L R, LFE
Sampling rate : 48.0 KHz
Bit depth : 16 bits
Compression mode : Lossy
Stream size : 285 MiB (6%)
Title : Serbin AC3 384 @ 5.1
Language : Russian
Audio #5
ID : 6
Format : AC-3
Format/Info : Audio Coding 3
Mode extension : CM (complete main)
Codec ID : A_AC3
Duration : 1h 43mn
Bit rate mode : Constant
Bit rate : 384 Kbps
Channel(s) : 6 channels
Channel positions : Front: L C R, Side: L R, LFE
Sampling rate : 48.0 KHz
Bit depth : 16 bits
Compression mode : Lossy
Stream size : 285 MiB (6%)
Title : Gavrilov AC3 384 @ 5.1
Audio #6
ID : 7
Format : AC-3
Format/Info : Audio Coding 3
Mode extension : CM (complete main)
Codec ID : A_AC3
Duration : 1h 43mn
Bit rate mode : Constant
Bit rate : 640 Kbps
Channel(s) : 6 channels
Channel positions : Front: L C R, Side: L R, LFE
Sampling rate : 48.0 KHz
Bit depth : 16 bits
Compression mode : Lossy
Stream size : 476 MiB (10%)
Title : Original eng AC3 640 @ 5.1
Text #1
ID : 8
Format : UTF-8
Codec ID : S_TEXT/UTF8
Codec ID/Info : UTF-8 Plain Text
Title : Hardsub
Language : Russian
Text #2
ID : 9
Format : UTF-8
Codec ID : S_TEXT/UTF8
Codec ID/Info : UTF-8 Plain Text
Title : Hardsub
Language : Ukrainian
Text #3
ID : 10
Format : UTF-8
Codec ID : S_TEXT/UTF8
Codec ID/Info : UTF-8 Plain Text
Title : Full
Language : Russian
Text #4
ID : 11
Format : UTF-8
Codec ID : S_TEXT/UTF8
Codec ID/Info : UTF-8 Plain Text
Title : Full
Language : Ukrainian
Text #5
ID : 12
Format : UTF-8
Codec ID : S_TEXT/UTF8
Codec ID/Info : UTF-8 Plain Text
Title : Full
Language : English
Menu
00:00:00.000 : en:00:00:00.000
00:02:13.133 : en:00:02:13.133
00:07:58.478 : en:00:07:58.478
00:12:09.729 : en:00:12:09.729
00:15:17.750 : en:00:15:17.750
00:18:22.268 : en:00:18:22.268
00:23:24.570 : en:00:23:24.570
00:26:44.269 : en:00:26:44.269
00:31:51.409 : en:00:31:51.409
00:34:17.722 : en:00:34:17.722
00:38:06.451 : en:00:38:06.451
00:39:36.708 : en:00:39:36.708
00:44:24.662 : en:00:44:24.662
00:49:12.449 : en:00:49:12.449
00:54:16.086 : en:00:54:16.086
00:57:15.432 : en:00:57:15.432
01:00:02.098 : en:01:00:02.098
01:03:02.112 : en:01:03:02.112
01:04:51.221 : en:01:04:51.221
01:09:39.175 : en:01:09:39.175
01:11:42.465 : en:01:11:42.465
01:15:33.863 : en:01:15:33.863
01:19:07.743 : en:01:19:07.743
01:21:43.899 : en:01:21:43.899
01:26:44.533 : en:01:26:44.533
01:28:56.998 : en:01:28:56.998
01:34:28.162 : en:01:34:28.162


Релиз группы:
piratbit.org



Скачать Я - легенда через торрент http://linkme.ufanet.ru/images/bb15b6121062054e10fa2981798e3b84.png Скачать фильм Я - легенда через торрент бесплантно в хорошем качестве Описание: Адаптация одноименного романа Ричарда Мэтисона о неизвестном вирусе, унесшем жизни половины населения земного шара, а остальную ... 10 10 16
Info! Золотая раздача, скачанное не засчитывается.
Торрент: Зарегистрирован [2011-09-17 07:56] · скачан: 1 308 раз
Статус: √ проверено
Размер: 4.85 GB
Как cкачать? Как скачать Я - легенда через торрент | qTorrent

% Раздел Тема Автор DL S | L
Фильмы [HD 720p, 1080p] (Хороший звук DUB, MVO) [ 13.92 GB ] Я – легенда / I Am Legend [2007 BDRip 1080p] [Alternative Cut] 2xDUB + 3xMVO + DVO + 3xAVO + VO - KORSAR kisa1980 Скачать
1 | 0
Фильмы [HD 720p, 1080p] (Хороший звук DUB, MVO) [ 8.93 GB ] Я – легенда / I Am Legend [2007 BDRip 720p] [Alternative Cut] 2xDUB + 3xMVO + DVO + 3xAVO + VO - KORSAR kisa1980 Скачать
2 | 0
Ultra HD (UHD: 2K, 4K, 8K) — видео сверхвысокой чёткости [ 53.9 GB ] Я – легенда / I Am Legend [2007 UHD Blu-ray EUR 2160p] [] sheker187 Скачать
1 | 0
Ultra HD (UHD: 2K, 4K, 8K) — видео сверхвысокой чёткости [ 29.8 GB ] Я – легенда / I Am Legend [2007 UHD BDRip 2160p] [SDR] AVO+DUB bober100 Скачать
1 | 0
Фильмы [HD 720p, 1080p] (Хороший звук DUB, MVO) [ 4.93 GB ] Я – легенда / I Am Legend [2007 BDRip 1080p HEVC ()] [Theatrical Cut] Мичман37 Скачать
4 | 0
Фильмы 2006-2008 [ 2.19 GB ] Я – легенда / I Am Legend [2007 HDRip-AVC ] winchester00100010 Скачать
2 | 0
Ultra HD (UHD: 2K, 4K, 8K) — видео сверхвысокой чёткости [ 46.48 GB ] Я – легенда / I Am Legend [2007 UHD BDRemux 2160p] [Театральная версия] sheker187 Скачать
1 | 0

28-11-2019 20:33  

Отключить всю рекламу на сайте

17-09-2011 08:21 Я - легенда Скачать торрент  

В чём отличие от обычной версии? концовка другая или в целом по всему фильму мини сцены новые присутствуют?piratbit.org



17-09-2011 08:45 Я - легенда Скачать торрент  

концовка другая ТЫ ПРАВpiratbit.org



17-09-2011 10:22 Я - легенда Скачать торрент  

фильм супер!piratbit.org



11-12-2011 10:19 Я - легенда Скачать торрент  

конечно другая концовка)
скоро вторая часть выйдетpiratbit.org



18-12-2011 01:56 Я - легенда Скачать торрент  

general007 писал(а):

скоро вторая часть выйдет

Когда она выйде???? Ты чёёооо? )))))) Не будет никакой второй частиpiratbit.org



02-03-2012 08:42 Я - легенда Скачать торрент  

avgustin писал(а):

general007 писал(а):

скоро вторая часть выйдет

Когда она выйде???? Ты чёёооо? )))))) Не будет никакой второй части

будет в 2013piratbit.org



16-04-2014 18:28 Я - легенда Скачать торрент  

kolisvesilis писал(а):

avgustin писал(а):

general007 писал(а):

скоро вторая часть выйдет

Когда она выйде???? Ты чёёооо? )))))) Не будет никакой второй части

будет в 2013

В каком 2013?piratbit.org



05-04-2015 15:24 Я - легенда Скачать торрент  

vlad1303 писал(а):

kolisvesilis писал(а):

avgustin писал(а):

general007 писал(а):

скоро вторая часть выйдет

Когда она выйде???? Ты чёёооо? )))))) Не будет никакой второй части

будет в 2013

В каком 2013?

Да, в каком?piratbit.org



24-01-2016 10:42 Я - легенда Скачать торрент  

sv13-spb писал(а):

vlad1303 писал(а):

kolisvesilis писал(а):

avgustin писал(а):

general007 писал(а):

скоро вторая часть выйдет

Когда она выйде???? Ты чёёооо? )))))) Не будет никакой второй части

будет в 2013

В каком 2013?

Да, в каком?

Да, в каком?piratbit.org



31-03-2018 22:34 Я - легенда Скачать торрент  

Bercut1 писал(а):

sv13-spb писал(а):

vlad1303 писал(а):

kolisvesilis писал(а):

avgustin писал(а):

general007 писал(а):

скоро вторая часть выйдет

Когда она выйде???? Ты чёёооо? )))))) Не будет никакой второй части

будет в 2013

В каком 2013?

Да, в каком?

Да, в каком?

Да, в каком?piratbit.org



06-11-2018 02:54 Я - легенда Скачать торрент  

в итоге, в каком?piratbit.org



15-12-2018 10:00 Я - легенда Скачать торрент  

в 2021piratbit.org



    Дорогой пользователь! Огромная просьба, поблагодарите релизера, оцените раздачу и оставьте свои комментарий, если Вы скачали Я - легенда через торрент бесплатно! Внесите свою лепту в развитие PiratBit!
    Комментировать посты могут только пользователи прошедшие не сложную регистрацию
    Показать сообщения:    

    Я - легенда через торрент
    Скачать бесплатно Я - легенда
    Я - легенда скачать торрент
    Я - легенда смотреть онлайн
    Cкачать фильм Я - легенда бесплатно
    Я - легенда скачать торрент в хорошем качестве
    Я - легенда смотреть онлайн бесплатно в хорошем качестве


    Вы не можете начинать темы
    Вы не можете отвечать на сообщения
    Вы не можете редактировать свои сообщения
    Вы не можете удалять свои сообщения
    Вы не можете голосовать в опросах
    Вы не можете прикреплять файлы к сообщениям
    Вы можете скачивать файлы