Anonymous, добрый день, присоединяйтесь к нам в Telegram!, здесь всегда актуальный адрес сайта, оперативная поддержка и многое другое!

>

5.6

iTunes

7.4

iTunes

5.7

MVO

1

7.7

1 сезон

6.8

iTunes

7.3

1 сезон

13

6.7

1 сезон

8.3

RePack

30

ULTIMATE

pack

9.9

Лицензия

ВАЖНО

ИГРА 18+

pack

7.3

RePack

MK11

7.7

RePack

jed

7.8

RePack

fifa19

8.5

RePack

RDR2

RePack

NEED FOR SPEED™ PAYBACK

4 сезон

9 сезон

Бесстыжие 9 сезон

Все сериалы

все сериалы на PB.wtf

RePack

FAR CRY 5

Anonymous, добрый день, мы катастрофически не успеваем собрать деньги на оплату серверов, помогите нам пожалуйста 5,10,15р., для нас важна любая помощь . В качестве благодарности мы отключим Вам всю рекламу на сайте (укажите свой ник в строку Ваше имя)!

×
  
Magnet ссылка

Касл / Castle / Сезон: 4 / 22 серии из (23) (Rob Bowman) [2011 г., Драма, детектив, комедия, WEB-DLRip] (LostFilm) piratbit.org

Касл через торрент piratbit.org

Размер: 9.23 GB | Добавлен: 9 лет 5 мес. назад | Торрент скачан:43 раза
Смотреть онлайн Касл | Скачать    Ребята, помогите собрать деньги на оплату серверов!!!

22-09-2011 19:48 Касл Скачать торрент  

Касл / Castle (4 сезон) ( 21 серия из (23) Год выпуска: 2011
Страна: США
Жанр: детектив, драма, комедия
Продолжительность: 00:43:08
Перевод: Профессиональный (многоголосный закадровый) - LostFilm

Режиссер: Роб Боумен, Джон Терлески, Брайан Спайсер ...
Продюссер: Эрмиан Бернштейн, Алекси Хоули, Джоан Ван Хорн, ...
Сценарий: Эндрю У. Марлоу, Рене Эчеваррия, Хосе Молина

Премьера (РФ): 20 сентября 2010

Кинопоиск:8.253 (4 884)

В ролях: Натан Филлион (Ричард Касл), Молли С. Куинн (Алексис Касл), Симус Девер (Кевин Райан), Джон Уэртас (Хавьер Эспозито), Тэмела Джонс (Лэни Пэриш), Стана Катич (Кейт Беккет).


Описание: Знакомьтесь, Ричард Кастл — успешный писатель детективного жанра, который в последней книге убил своего главного героя. Но кажется, что одному из почитателей его таланта книги понравились слегка чересчур — в городе появляется подражатель, совершающий преступления, с убийственной точностью копируя способы, которыми Кастл убивал в своих произведениях. И вот наш изнывающий от скуки писатель был вызван в отдел убийств Нью-йоркской полиции, чтобы помочь найти убийцу.

Качество:WEB-DLRip
Формат: AVI
Видео кодек: XviD
Аудио кодек: MP3
Видео:720x400 (16:9), 23.976 fps, ~1000 kbps, ~0.145 bit/pixel
Аудио: 48 kHz, 2 ch, 192 kbps

Релиз от:
Озвучка: Студия "Kravec"
E:\ЗАГРУЗКА\Касл 4 сезон\Castle.S04.e01.rus.Lostfilm.TV.avi
General
Complete name : E:\ЗАГРУЗКА\Касл 4 сезон\Castle.S04.e01.rus.Lostfilm.TV.avi
Format : AVI
Format/Info : Audio Video Interleave
File size : 368 MiB
Duration : 43mn 8s
Overall bit rate : 1 194 Kbps
Writing application : Nandub v1.0rc2
Writing library : Nandub build 1853/release
Video #0
ID : 0
Format : MPEG-4 Visual
Format profile : Simple@L3
Format settings, BVOP : No
Format settings, QPel : No
Format settings, GMC : No warppoints
Format settings, Matrix : Default (H.263)
Codec ID : XVID
Codec ID/Hint : XviD
Duration : 43mn 8s
Bit rate : 991 Kbps
Width : 720 pixels
Height : 400 pixels
Display aspect ratio : 16:9
Frame rate : 23.976 fps
Resolution : 8 bits
Colorimetry : 4:2:0
Scan type : Progressive
Bits/(Pixel*Frame) : 0.144
Stream size : 306 MiB (83%)
Writing library : XviD 1.2.1 (UTC 2008-12-04)
Audio #1
ID : 1
Format : MPEG Audio
Format version : Version 1
Format profile : Layer 3
Format_Settings_Mode : Joint stereo
Format_Settings_ModeExtension : MS Stereo
Codec ID : 55
Codec ID/Hint : MP3
Duration : 43mn 8s
Bit rate mode : Variable
Bit rate : 190 Kbps
Nominal bit rate : 192 Kbps
Channel(s) : 2 channels
Sampling rate : 48.0 KHz
Stream size : 58.7 MiB (16%)
Alignment : Aligned on interleaves
Interleave, duration : 24 ms (0.58 video frame)
Interleave, preload duration : 458 ms
Writing library : LAME3.97b
Encoding settings : -m j -V 4 -q 3 -lowpass 18.6 --abr 192
01. Наперекор всему (Rise)
02. Герои и злодеи (Heroes and Villians)
03. Дело о голове (Head Case)
04. Отчёт по баллистике (Kick the Ballistics)
05. Взгляд наблюдателя (Eye of the Beholder)
06. Демоны (Demons)
07. Полицейские и воры (Cops & Robbers)
08. Отель разбитых сердец (Heartbreak Hotel)
09. Убийственный выстрел (Kill Shot)
10. Скованные (Cuffed)
11. Пока смерть не разлучит нас (Til Death Do Us Part)
12. В случае убийства позвоните мэру (Dial M for Mayor)
13. Каждому кобелю по паре (An Embarrassment of Bitches)
14. Голубая бабочка (The Blue Butterfly)
15. Пандора (Pandora)
16.Стержень (Linchpin)
17)Once Upon A Crime
18)A Dance With Death
19)47 Seconds
20) The Limey
21) Headhunters
при каждом добавлении создаётся новый торрент. Чтобы начать докачку новой серии, пользователям необходимо сделать следующее:

(1) остановить скачивание,
(2) удалить старый торрент у себя из клиента (старые серии удалять не надо),
(3) скачать новый торрент и запустить его у себя в клиенте вместо старого, при этом указать клиенту путь в старую папку куда и должно происходить скачивание новых серий.

Ваш клиент при этом должен произвести хеширование (проверку) старой папки (если не производит сам - помогите ему сделать это), и будет докачивать только те серии которых у вас ещё нет. Старые серии при этом не удаляются, а продолжают раздаваться!

Eсли вы уже удалили старые серии, то предотвратить повторную закачку старых серий можно, отжав галочку в соответсвующих местах при запуске нового торрента. По возможности, желательно не удалять старые серии как можно дольше чтобы релизёр не столько продолжал раздавать старые серии, а смог сконцентрироваться на новых.
Добавлена 22 серия.
piratbit.org



Скачать Касл через торрент http://i28.fastpic.ru/big/2011/0922/f2/5d11d67f2b962d5abc146a42e97886f2.jpg Скачать, смотреть онлайн Касл бесплантно в хорошем качестве Описание: Знакомьтесь, Ричард Кастл — успешный писатель детективного жанра, который в последней книге убил своего главного героя. Но ... 10 10 6
Info! Золотая раздача, скачанное не засчитывается.
Торрент: Зарегистрирован [2012-05-05 13:35] · скачан: 43 раз
Статус: √ проверено
Размер: 9.23 GB
Как cкачать? Как скачать Касл через торрент | UTorrent



Последний раз редактировалось: lyokaa (2012-05-05 13:35), всего редактировалось 42 раз(а)

28-11-2019 20:33  

Отключить всю рекламу на сайте

23-09-2011 09:31 Касл Скачать торрент  

Спасибо,а от NovaFilm будет озвучка?piratbit.org



18-02-2012 18:27 Касл Скачать торрент  

14 и 15 серии плиз))piratbit.org



24-02-2012 11:18 Касл Скачать торрент  

Он что, 4 сезона книжки пишет?piratbit.org



05-05-2012 13:36 Касл Скачать торрент  

Добавлена 22 серия.piratbit.org



21-10-2020 22:23 Касл Скачать торрент  

Добрые люди раздайте, сериал зацепил, очень даже не плохой!!!piratbit.org



    Дорогой пользователь! Огромная просьба, поблагодарите релизера, оцените раздачу и оставьте свои комментарий, если Вы скачали Касл через торрент бесплатно!
    Комментировать посты могут только пользователи прошедшие не сложную регистрацию
    Показать сообщения:    

    Касл через торрент
    Скачать бесплатно Касл
    Касл скачать торрент
    Касл смотреть онлайн
    Cкачать фильм Касл бесплатно
    Касл скачать торрент в хорошем качестве
    Касл смотреть онлайн бесплатно в хорошем качестве


    Вы не можете начинать темы
    Вы не можете отвечать на сообщения
    Вы не можете редактировать свои сообщения
    Вы не можете удалять свои сообщения
    Вы не можете голосовать в опросах
    Вы не можете прикреплять файлы к сообщениям
    Вы можете скачивать файлы