Anonymous, добрый день, присоединяйтесь к нам в Telegram!, здесь всегда актуальный адрес сайта, оперативная поддержка и многое другое!

>

5.6

iTunes

7.4

iTunes

5.7

MVO

1

7.7

1 сезон

6.8

iTunes

7.3

1 сезон

13

6.7

1 сезон

8.3

RePack

30

ULTIMATE

pack

9.9

Лицензия

ВАЖНО

ИГРА 18+

pack

7.3

RePack

MK11

7.7

RePack

jed

7.8

RePack

fifa19

8.5

RePack

RDR2

RePack

NEED FOR SPEED™ PAYBACK

4 сезон

9 сезон

Бесстыжие 9 сезон

Все сериалы

все сериалы на PB.wtf

RePack

FAR CRY 5

Anonymous, добрый день, мы катастрофически не успеваем собрать деньги на оплату серверов, помогите нам пожалуйста 5,10,15р., для нас важна любая помощь . В качестве благодарности мы отключим Вам всю рекламу на сайте (укажите свой ник в строку Ваше имя)!

×
  
Magnet ссылка

Касл / Castle / Сезон: 4 / Серии: 1-23 (23) (Rob Bowman) [2011 г., Драма, детектив, комедия, WEB-DL 720p] MVO (LostFilm) piratbit.org

Касл через торрент piratbit.org

Размер: 33.42 GB | Добавлен: 9 лет 5 мес. назад | Торрент скачан:39 раз
Смотреть онлайн Касл | Скачать    Ребята, помогите собрать деньги на оплату серверов!!!

01-10-2011 11:05 Касл Скачать торрент  



Касл / Castle
«A whole new chapter in crime solving.»


Год выпуска: 2011
Страна: США
Жанр: драма, криминал, детектив
Продолжительность: 42 мин.
Перевод: Профессиональный (многоголосый, закадровый)

Режиссер: Роб Боумен, Джон Терлески, Брайан Спайсер
Продюссер: Эрмиан Бернштейн, Алекси Хоули, Джоан Ван Хорн
Сценарий: Эндрю У. Марлоу, Дэвид Аманн, Рене Эчеваррия


В ролях:
Натан Филлион, Стана Катик, Сьюзэн Салливан, Молли С. Куинн, Джон Уэртас, Тамала Джонс, Шимус Девер, Рубен Сантьяго-Хадсон, Ари Гросс, Пенни Джонс



Знакомьтесь, Ричард Касл — успешный писатель детективного жанра, который в последней книге убил своего главного героя. Но кажется, что одному из почитателей его таланта книги понравились слегка чересчур — в городе появляется подражатель, совершающий преступления, с убийственной точностью копируя способы, которыми Касл убивал в своих произведениях. И вот наш изнывающий от скуки писатель был вызван в отдел убийств Нью-йоркской полиции, чтобы помочь найти убийцу.

Качество: WEB-DL 720p
Формат: MKV
Видео кодек: H.264
Аудио кодек: AC3
Видео: 1280x720 (16:9), 23.976 fps, ~4000 kbps, ~0.18 bit/pixel
Аудио 1: 48 kHz, 2 ch, 192 kbps LostFilm
Аудио 2: 48 kHz, 6 ch, 384 kbps Original



Релиз

1. Rise / Наперекор всему
2. Heroes and Villians / Герои и злодеи
3. Head Case / Дело о голове
4. Kick the Ballistics / Отчёт по баллистике
5. Eye of the Beholder / Взгляд наблюдателя
6. Demons / Демоны
7. Cops & Robbers / Полицейские и воры
8. Heartbreak Hotel / Отель разбитых сердец
9. Kill Shot / Убийственный выстрел
10. Cuffed / Скованные
11. Til Death Do Us Part / Пока смерть не разлучит нас
12. Dial M for Mayor / В случае убийства позвоните мэру
13. An Embarrassment of Bitches / Каждому кобелю по паре
14. The Blue Butterfly / Голубая бабочка
15. Pandora / Пандора
16. Linchpin / Стержень
17. Преступление давным-давно (Once Upon a Crime)
18. Танец со смертью (A Dance with Death)
19. 47 секунд (47seconds)
20. Англичанин (The Limey)
21. Охотники за головами (Headhunters)
22. И снова о нежити (Undead Again)
23. Всегда (Always)
Общее
Уникальный идентификатор : 206174474833438159281637298844107068229 (0x9B1BC26D9BF22A4394CDE52AF2E8D345)
Полное имя : F:Castle.S04.720p.WEB-DL.Rus.Eng.LostFilmCastle.s04e01.Rus.Eng.LostFilm.mkv
Формат : Matroska
Размер файла : 1,41 Гбайт
Продолжительность : 42 м.
Общий поток : 4705 Кбит/сек
Название фильма : Castle S04E01 - Rise / Наперекор всему
Дата кодирования : UTC 2011-09-22 19:15:50
Программа кодирования : mkvmerge v4.8.0 ('I Got The...') сборка от May 24 2011 03:12:58
Библиотека кодирования : libebml v1.2.0 + libmatroska v1.1.0

Видео
Идентификатор : 1
Формат : AVC
Формат/Информация : Advanced Video Codec
Профиль формата : High@L3.1
Параметр CABAC формата : Нет
Параметр ReFrames формата : 2 кадра
Идентификатор кодека : V_MPEG4/ISO/AVC
Продолжительность : 42 м.
Битрейт : 4035 Кбит/сек
Ширина : 1280 пикс.
Высота : 720 пикс.
Соотношение сторон : 16:9
Частота кадров : 23,976 кадр/сек
Цветовое пространство : YUV
Подвыборка цветности : 4:2:0
Битовая глубина : 8 бит
Тип развёртки : Прогрессивная
Бит/(Пиксели*Кадры) : 0.183
Размер потока : 1,21 Гбайт (86%)
Язык : English
Основные цвета : BT.709-5, BT.1361, IEC 61966-2-4, SMPTE RP177
Характеристики трансфера : BT.709-5, BT.1361
Коэффициенты матрицы : BT.709-5, BT.1361, IEC 61966-2-4 709, SMPTE RP177

Аудио #1
Идентификатор : 2
Формат : AC-3
Формат/Информация : Audio Coding 3
Расширение режима : CM (complete main)
Идентификатор кодека : A_AC3
Продолжительность : 42 м.
Вид битрейта : Постоянный
Битрейт : 192 Кбит/сек
Каналы : 2 канала
Расположение каналов : Front: L R
Частота : 48,0 КГц
Битовая глубина : 16 бит
Метод сжатия : С потерями
Размер потока : 59,0 Мбайт (4%)
Заголовок : Rus - LostFilm
Язык : Russian

Аудио #2
Идентификатор : 3
Формат : AC-3
Формат/Информация : Audio Coding 3
Расширение режима : CM (complete main)
Идентификатор кодека : A_AC3
Продолжительность : 42 м.
Вид битрейта : Постоянный
Битрейт : 384 Кбит/сек
Каналы : 6 каналов
Расположение каналов : Front: L C R, Side: L R, LFE
Частота : 48,0 КГц
Битовая глубина : 16 бит
Метод сжатия : С потерями
Размер потока : 118 Мбайт (8%)
Заголовок : Eng - Original
Язык : English
Внимание! Раздача ведётся путём добавления новых серий; при каждом добавлении создётся новый торрент. Чтобы начать докачку новой серии, пользователям необходимо сделать следующее:
1) остановить скачивание,
2) удалить старый торрент у себя из клиента (старые серии удалять не надо),
3) скачать новый торрент и запустить его у себя в клиенте вместо старого, при этом указать клиенту путь в старую папку куда и должно происходить скачивание новых серий.

Ваш клиент при этом должен произвести хеширование (проверку) старой папки (если не производит сам - помогите ему сделать это), и будет докачивать только те серии которых у вас ещё нет. Старые серии при этом не удаляются, а продолжают раздаваться!
Eсли вы уже удалили старые серии, то предотвратить повторную закачку старых серий можно, отжав галочку в соответсвующих местах при запуске нового торрента.



скриншот   скриншот   скриншот   скриншот   скриншот   скриншот  

Добавлена 23 серия, обновите торрент!
Сезон окончен
:ad: 5 сезон в сентябре, ждем!
piratbit.org



Скачать Касл через торрент http://i31.fastpic.ru/big/2011/0920/b5/4e5a639db6a18bd5bd786c9c3b307bb5.png Скачать, смотреть онлайн Касл бесплантно в хорошем качестве В ролях: Натан Филлион, Стана Катик, Сьюзэн Салливан, Молли С. Куинн, Джон Уэртас, Тамала Джонс, Шимус Девер, Рубен Сантьяго-Хадсон, Ари ... 10 10 4
Info! Золотая раздача, скачанное не засчитывается.
Торрент: Зарегистрирован [2012-05-12 08:01] · скачан: 39 раз
Статус: √ проверено
Размер: 33.42 GB
Как cкачать? Как скачать Касл через торрент | UTorrent

% Раздел Тема Автор DL S | L
Зарубежные сериалы [ 5.03 GB ] Касл / Castle / Сезон: 8 / Серии: 1-4 из 23 [2015 WEB-DL 720p] MVO 10oN Скачать
1 | 0


Последний раз редактировалось: chack (2013-07-24 08:43), всего редактировалось 29 раз(а)

28-11-2019 20:33  

Отключить всю рекламу на сайте

01-10-2011 11:13 Касл Скачать торрент  

Asker
Привет! Спасибо за раздачу!piratbit.org



29-09-2012 14:35 Касл Скачать торрент  

Спасибо большое
Будем ждать 5 сезонpiratbit.org



09-03-2013 21:02 Касл Скачать торрент  

дайте скорость плс(((piratbit.org



    Дорогой пользователь! Огромная просьба, поблагодарите релизера, оцените раздачу и оставьте свои комментарий, если Вы скачали Касл через торрент бесплатно!
    Комментировать посты могут только пользователи прошедшие не сложную регистрацию
    Показать сообщения:    

    Касл через торрент
    Скачать бесплатно Касл
    Касл скачать торрент
    Касл смотреть онлайн
    Cкачать фильм Касл бесплатно
    Касл скачать торрент в хорошем качестве
    Касл смотреть онлайн бесплатно в хорошем качестве


    Вы не можете начинать темы
    Вы не можете отвечать на сообщения
    Вы не можете редактировать свои сообщения
    Вы не можете удалять свои сообщения
    Вы не можете голосовать в опросах
    Вы не можете прикреплять файлы к сообщениям
    Вы можете скачивать файлы