Anonymous, добрый день, присоединяйтесь к нам в Telegram!, здесь всегда актуальный адрес сайта, оперативная поддержка и многое другое!

>

5.6

iTunes

7.4

iTunes

5.7

MVO

1

7.7

1 сезон

6.8

iTunes

7.3

1 сезон

13

6.7

1 сезон

8.3

RePack

30

ULTIMATE

pack

9.9

Лицензия

ВАЖНО

ИГРА 18+

pack

7.3

RePack

MK11

7.7

RePack

jed

7.8

RePack

fifa19

8.5

RePack

RDR2

RePack

NEED FOR SPEED™ PAYBACK

4 сезон

9 сезон

Бесстыжие 9 сезон

Все сериалы

все сериалы на PB.wtf

RePack

FAR CRY 5

Anonymous, добрый день, мы катастрофически не успеваем собрать деньги на оплату серверов, помогите нам пожалуйста 5,10,15р., для нас важна любая помощь . В качестве благодарности мы отключим Вам всю рекламу на сайте (укажите свой ник в строку Ваше имя)!

×
  
Magnet ссылка

Штат Блу Маунтин / Blue Mountain State / Сезон: 3 / Серии: 13 (13) (Эрик Фальконер ) [2011 г., комедия, WEB-DL 720p] SkyeFilmTV piratbit.org

Штат Блу Маунтин через торрент piratbit.org

Размер: 9.23 GB | Добавлен: 9 лет 8 мес. назад | Торрент скачан:28 раз
Смотреть онлайн Штат Блу Маунтин | Скачать    Ребята, помогите собрать деньги на оплату серверов!!!

02-10-2011 08:10 Штат Блу Маунтин Скачать торрент  

[font="Georgia"]Штат Блу Маунтин / Blue Mountain State
Сезон: 3 / Серии: 13 (13)
[font="Georgia"]Год выпуска: 2011
Страна: США
Жанр: комедия
Продолжительность: 00:21:34
Перевод: Многоголосный, закадровый, SkyeFilmTV
Режиссер: Эрик Фальконер
Продюссер: Чип Холл, Джеффри Мэлман, Кристофор Браун
Сценарий: Эрик Фалконер, Крис Романо, Дрю Хэнкок,
Премьера (РФ): 9 августа 2010
IMDb: 8.50 (5 160)
Кинопоиск: 7.881 2 011
В ролях: Дэрин Брукс, Алан Ричсон, Эд Маринаро, Крис Романо, Кваси Сонгуи, Омари Ньютон, Роб Рамсей, Джеймс Кейд, Фрэнки Шоу, Пейдж Кеннеди ...



Продолжение убойного сериала. После многих прошедших событий. В команде Горные Козлы опять происходят изменения, кто-то уходит навсегда, кто-то становится капитаном, сам не желая того, кто-то пытается вернуться в команду и вернуть свой титул. Футбольная команда вновь будет отжигать на всю катушку. Ещё больше вечеринок в новых местах, пива, драйва, наркоты и без башенных приколов и, конечно же, не забываем про девчонок, их станет еще больше. И всё это в озвучке SkyeFilmTV.

Качество: WEB-DLRip 720p
Формат: MKV
Видео кодек: H.264
Аудио кодек: AC3, AAC
Видео:1280x720, 23.976 fps, V_MPEG4/ISO/AVC ~4615 kbps avg
Аудио 1: 48 kHz, AC3 Dolby Digital, 2/0 (L,R) ch, ~192.00 kbps avg
Аудио 2:48 kHz, Advanced Audio Codec, 2/0 (L,R) ch

Качество: WEB-DLRip
Формат: AVI
Видео кодек: XviD
Аудио кодек: AC3
Видео: 720x400 (1.80:1), 23.976 fps, XviD build 64 ~1999 kbps avg, 0.29 bit/pixel
Аудио 1:48 kHz, AC3 Dolby Digital, 2/0 (L,R) ch, ~192 kbps - RUS
Аудио 2: 48 kHz, AC3 Dolby Digital, 2/0 (L,R) ch, ~192 kbps - ENG

[font="Georgia"]Релиз от: SkyeFilmTV
E:\ЗАГРУЗКА\Штат Блу Маунтин Сезон 3\1.avi
General
Complete name : E:\ЗАГРУЗКА\Штат Блу Маунтин Сезон 3\1.avi
Format : AVI
Format/Info : Audio Video Interleave
File size : 370 MiB
Duration : 21mn 34s
Overall bit rate : 2 398 Kbps
Writing application : VirtualDubMod 1.5.10.2 (build 2542/release)
Writing library : VirtualDubMod build 2542/release
Video #0
ID : 0
Format : MPEG-4 Visual
Format profile : Advanced Simple@L5
Format settings, BVOP : Yes
Format settings, QPel : No
Format settings, GMC : No warppoints
Format settings, Matrix : Default (MPEG)
Codec ID : XVID
Codec ID/Hint : XviD
Duration : 21mn 34s
Bit rate : 2 000 Kbps
Width : 720 pixels
Height : 400 pixels
Display aspect ratio : 16:9
Frame rate : 23.976 fps
Resolution : 8 bits
Colorimetry : 4:2:0
Scan type : Progressive
Bits/(Pixel*Frame) : 0.290
Stream size : 309 MiB (83%)
Writing library : XviD 64
Audio #1
ID : 1
Format : AC-3
Format/Info : Audio Coding 3
Codec ID : 2000
Duration : 21mn 34s
Bit rate mode : Constant
Bit rate : 192 Kbps
Channel(s) : 2 channels
Channel positions : L R
Sampling rate : 48.0 KHz
Stream size : 29.6 MiB (8%)
Alignment : Split accross interleaves
Interleave, duration : 42 ms (1.00 video frame)
Interleave, preload duration : 500 ms
Audio #2
ID : 2
Format : AC-3
Format/Info : Audio Coding 3
Codec ID : 2000
Duration : 21mn 34s
Bit rate mode : Constant
Bit rate : 192 Kbps
Channel(s) : 2 channels
Channel positions : L R
Sampling rate : 48.0 KHz
Stream size : 29.6 MiB (8%)
Alignment : Split accross interleaves
Interleave, duration : 42 ms (1.00 video frame)
Interleave, preload duration : 500 ms

E:\ЗАГРУЗКА\Штат Блу Маунтин Сезон 3 SkyeFilmTV\Blue.Mountain.State.S03E01.The.Captain.720p.WEB-DL.Rus.Eng.SkyeFilmTV.mkv
General
Complete name : E:\ЗАГРУЗКА\Штат Блу Маунтин Сезон 3 SkyeFilmTV\Blue.Mountain.State.S03E01.The.Captain.720p.WEB-DL.Rus.Eng.SkyeFilmTV.mkv
Format : Matroska
File size : 719 MiB
Duration : 23mn 31s
Overall bit rate : 4 273 Kbps
Movie name : Blue Mountain State S03E01 The Captain 720p WEB-DL SkyeFilmTV
Encoded date : UTC 2011-09-30 13:42:47
Writing application : mkvmerge v2.1.0 ('Another Place To Fall') built on Aug 19 2007 13:40:07
Writing library : libebml v0.7.7 + libmatroska v0.8.1
Video #1
ID : 1
Format : AVC
Format/Info : Advanced Video Codec
Format profile : High@L3.1
Format settings, CABAC : No
Format settings, ReFrames : 2 frames
Muxing mode : Container profile=Unknown@3.1
Codec ID : V_MPEG4/ISO/AVC
Duration : 23mn 29s
Width : 1 280 pixels
Height : 720 pixels
Display aspect ratio : 16:9
Frame rate : 23.976 fps
Resolution : 8 bits
Colorimetry : 4:2:0
Scan type : Progressive
Language : English
Color primaries : BT.709-5, BT.1361, IEC 61966-2-4, SMPTE RP177
Transfer characteristics : BT.709-5, BT.1361
Matrix coefficients : BT.709-5, BT.1361, IEC 61966-2-4 709, SMPTE RP177
Audio #2
ID : 2
Format : AC-3
Format/Info : Audio Coding 3
Codec ID : A_AC3
Duration : 23mn 31s
Bit rate mode : Constant
Bit rate : 192 Kbps
Channel(s) : 2 channels
Channel positions : L R
Sampling rate : 48.0 KHz
Stream size : 32.3 MiB (4%)
Title : SkyeFilmTV
Language : Russian
Audio #3
ID : 3
Format : AAC
Format/Info : Advanced Audio Codec
Format version : Version 4
Format profile : LC
Format settings, SBR : No
Codec ID : A_AAC
Duration : 23mn 31s
Channel(s) : 2 channels
Channel positions : L R
Sampling rate : 48.0 KHz
Title : English
Language : English
01. "Капитан (The Captain)"
02. "Члено-Фотка (Dic Pics)"
03. "Тэд Вернулся (Thad's Back)"
04. "Вершина (The Peak)"
05. "Тренировочный день (Training Day)"
06. "Отключение электричества (Blackout)"
07. "Суеверие (Superstition)"
08. "Смешные Факты (Fun Facts)"
09. "Слово на С (The C-Word)" (Superstition)"
10. "Одна неделя (One Week)"
11. "Смертельный штраф (Death Penalty)"
12. "Кукурузное поле часть 1 (Corn Field Part 1)"
13. "Кукурузное поле часть 2 (Corn Field Part 2)"
при каждом добавлении создётся новый торрент. Чтобы начать докачку новой серии, пользователям необходимо сделать следующее:

(1) остановить скачивание,
(2) удалить старый торрент у себя из клиента (старые серии удалять не надо),
(3) скачать новый торрент и запустить его у себя в клиенте вместо старого, при этом указать клиенту путь в старую папку куда и должно происходить скачивание новых серий.

Ваш клиент при этом должен произвести хеширование (проверку) старой папки (если не производит сам - помогите ему сделать это), и будет докачивать только те серии которых у вас ещё нет. Старые серии при этом не удаляются, а продолжают раздаваться!

Eсли вы уже удалили старые серии, то предотвратить повторную закачку старых серий можно, отжав галочку в соответсвующих местах при запуске нового торрента. По возможности, желательно не удалять старые серии как можно дольше чтобы релизёр не столько продолжал раздавать старые серии, а смог сконцентрироваться на новых.
Добавлены 10-13 серии (720x400). Перезагрузите торрент.piratbit.org



Скачать Штат Блу Маунтин через торрент http://piratbit.in.ua/30b11422cc2b63ee64d56fc01ab570aa.jpg Скачать, смотреть онлайн Штат Блу Маунтин бесплантно в хорошем качестве В ролях: Дэрин Брукс, Алан Ричсон, Эд Маринаро, Крис Романо, Кваси Сонгуи, Омари Ньютон, Роб Рамсей, Джеймс Кейд, Фрэнки Шоу, Пейдж Кеннеди ... 5 10 1
Info! Золотая раздача, скачанное не засчитывается.
Торрент: Зарегистрирован [2012-01-20 12:40] · скачан: 28 раз
Статус: √ проверено
Размер: 9.23 GB
Как cкачать? Как скачать Штат Блу Маунтин через торрент | UTorrent



Последний раз редактировалось: lyokaa (2012-01-20 16:07), всего редактировалось 16 раз(а)

28-11-2019 20:33  

Отключить всю рекламу на сайте

25-10-2011 11:10 Штат Блу Маунтин Скачать торрент  

Когда новые серии будут???piratbit.org



07-11-2011 10:53 Штат Блу Маунтин Скачать торрент  

никто не сидит((piratbit.org



07-11-2011 19:42 Штат Блу Маунтин Скачать торрент  

ибуша
Да, у нас народ такой: скачал, посмотрел, удалил.piratbit.org



20-01-2012 12:25 Штат Блу Маунтин Скачать торрент  

Добавлены 10-13 серии (720x400).piratbit.org



    Дорогой пользователь! Огромная просьба, поблагодарите релизера, оцените раздачу и оставьте свои комментарий, если Вы скачали Штат Блу Маунтин через торрент бесплатно!
    Комментировать посты могут только пользователи прошедшие не сложную регистрацию
    Показать сообщения:    

    Штат Блу Маунтин через торрент
    Скачать бесплатно Штат Блу Маунтин
    Штат Блу Маунтин скачать торрент
    Штат Блу Маунтин смотреть онлайн
    Cкачать фильм Штат Блу Маунтин бесплатно
    Штат Блу Маунтин скачать торрент в хорошем качестве
    Штат Блу Маунтин смотреть онлайн бесплатно в хорошем качестве


    Вы не можете начинать темы
    Вы не можете отвечать на сообщения
    Вы не можете редактировать свои сообщения
    Вы не можете удалять свои сообщения
    Вы не можете голосовать в опросах
    Вы не можете прикреплять файлы к сообщениям
    Вы можете скачивать файлы