Ссылка на приватное зеркало нашего сайта всего за 1$. Внимание количество ограничено!!!

2 сезон

iTunes

iTunes

1

iTunes

iTunes

iTunes

WEBRip

iTunes

30
pack

Вам бонус

ВАЖНО

!!Акция!!

Alien_RageХит недели

RePack

Horizon Zero Dawn

ИГРА 18+

pack

RePack

jed

!!Акция!!

Alien_Rage

RePack

fifa19

RePack

Assassins Creed: Odyssey

RePack

NEED FOR SPEED™ PAYBACK

4 сезон

9 сезон

Бесстыжие 9 сезон

Все сериалы

все сериалы на PB.wtf

RePack

FAR CRY 5
  

Затерянная колония / Wraiths of Roanoke (Мэтт Кодд) [2007 г., ужасы, фантастика, фэнтези, детектив, HDRip] piratbit.org

Затерянная колония через торрент piratbit.org

Размер: 1.45 GB | Добавлен: 8 лет 11 мес. назад | Торрент скачан:171 раз
Скачать  

02-10-2011 11:48 Затерянная колония Скачать торрент  

Затерянная колония / Wraiths of Roanoke

Год выпуска: 2007
Страна: США, Болгария
Жанр: ужасы, фантастика, фэнтези, детектив
Продолжительность: 01:27:21
Перевод: Профессиональный (многоголосый, закадровый)

Режиссер: Мэтт Кодд
Продюссер: Дэна Дубовский, Рафаэль Джордан, Марк Л. Лестер
Сценарий: Рафаэль Джордан

Бюджет: $2 000 000
Премьера в мире: 13 октября 2007

R
-Лицам до 17 лет обязательно присутствие взрослого
Мировой рейтинг IMDB 4.00 (737)


В ролях: Эдриан Пол, Фрида Шоу, Ретт Джиллз, Майкл Тех, Мари Маскаро, Алекс МакАртур, Джордж Калил, Даг Дерт, Атанас Сребрев, Христо Митцков

Описание: В 1492 году Христофор Колумб открыл Америку. И европейцы начали осваивать новые территории. Но не повсюду их ожидал радушный прием. И вовсе не обязательно беда исходила от индейцев-аборигенов. 22 июля 1587 года 117 отважных мужчин и женщин после долгого плавания через Атлантический океан высадились на острове Роаноке, штат Вирджиния, чтобы основать здесь первое британское поселение. Колонисты построили дома и засеяли землю. Но спустя некоторое время они все исчезли без следа. И мужчины, и женщины, и дети. И никто никогда не разгадал тайну исчезнувшей колонии...

Доп. информация: Фильм снимался в Болгарии. Первая отснятая сцена – высадка колонистов на берег Роанока, самая последняя сцена – надпись Энаннайса «Кроатон» на дереве.
Телефильм, основанный на распространенной легенде, впервые показан на телевидении по «Sci Fi Channel» в октябре 2007 года.
Во время съемок Эдриан Пол был несколько раз легко ранен; его поразили стрелой с пластмассовым наконечником, во время тренировочного поединка с актером Ретом Джайлзом, он был дважды задет деревянным мечом по ноге и лицу.

Качество: HDRip
Формат: MKV
Видео кодек: H.26x
Аудио кодек: AC3
Видео: AVC, 1040x584 (16:9), 25.000 fps, 1 997 Kbps (0.132 bit/pixel)
Аудио: AC-3, 48.0 KHz, 6 ch, 384 Kbps, CBR
Общее
Уникальный идентификатор : 186336660984087623399477488355680828410 (0x8C2F22B0F4CF73F4B28E053653F9BBFA)
Полное имя : Wraiths of Roanoke (2007) HDRip-AVC.mkv
Формат : Matroska
Версия формата : Version 2
Размер файла : 1,45 Гбайт
Продолжительность : 1 ч. 27 м.
Общий поток : 2382 Кбит/сек
Дата кодирования : UTC 2011-07-27 19:28:16
Программа кодирования : mkvmerge v4.6.0 ('Still Crazy After All These Years') сборка от Apr 1 2011 21:01:49
Библиотека кодирования : libebml v1.2.0 + libmatroska v1.1.0

Видео
Идентификатор : 1
Формат : AVC
Формат/Информация : Advanced Video Codec
Профиль формата : High@L4.1
Параметр CABAC формата : Да
Параметр ReFrames формата : 8 кадров
Идентификатор кодека : V_MPEG4/ISO/AVC
Продолжительность : 1 ч. 27 м.
Битрейт : 1997 Кбит/сек
Ширина : 1040 пикселей
Высота : 584 пикселя
Соотношение сторон : 16:9
Частота кадров : 25,000 кадров/сек
Цветовое пространство : YUV
Субдискретизация насыщенности : 4:2:0
Битовая глубина : 8 бит
Тип развёртки : Прогрессивная
Бит/(Пиксели*Кадры) : 0.132
Размер потока : 1,19 Гбайт (82%)
Библиотека кодирования : x264 core 115 r1937 aa21558

Аудио
Идентификатор : 2
Формат : AC-3
Формат/Информация : Audio Coding 3
Расширение режима : CM (complete main)
Идентификатор кодека : A_AC3
Продолжительность : 1 ч. 27 м.
Вид битрейта : Постоянный
Битрейт : 384 Кбит/сек
Каналы : 6 каналов
Расположение каналов : Front: L C R, Side: L R, LFE
Частота : 48,0 КГц
Битовая глубина : 16 бит
Метод сжатия : С потерями
Размер потока : 240 Мбайт (16%)




piratbit.org



Скачать Затерянная колония через торрент http://i30.fastpic.ru/big/2011/1002/ea/a617b1311879a53c042892cf565242ea.jpg Скачать фильм Затерянная колония через торрент бесплантно в хорошем качестве Описание: В 1492 году Христофор Колумб открыл Америку. И европейцы начали осваивать новые территории. Но не повсюду их ожидал радушный ... 10 10 2
Info! Золотая раздача, скачанное не засчитывается.
Торрент: Зарегистрирован [2011-10-02 11:48] · скачан: 171 раз
Статус: √ проверено
Размер: 1.45 GB
Как cкачать? Как скачать Затерянная колония через торрент | qTorrent

% Раздел Тема Автор DL S | L
Фильмы 2006-2008 [ 1.46 GB ] Затерянная колония / Lost Colony / Wraiths of Roanoke [2007 DVDRip] Leshka37 Скачать
1 | 0
Фильмы 2006-2008 [ 1.37 GB ] Затерянная колония / Wraiths of Roanoke [2007 ... DVDRip лицензия] шурка Скачать
1 | 0

28-11-2019 20:33  

Отключить всю рекламу на сайте

27-10-2011 17:45 Затерянная колония Скачать торрент  

спасибоpiratbit.org



31-10-2011 10:34 Затерянная колония Скачать торрент  

Отличный фильм! Приятный просмотр всем любителям фантастики и ужасов - гарантирован! :good:piratbit.org



    Дорогой пользователь! Огромная просьба, поблагодарите релизера, оцените раздачу и оставьте свои комментарий, если Вы скачали Затерянная колония через торрент бесплатно! Внесите свою лепту в развитие PiratBit!
    Комментировать посты могут только пользователи прошедшие не сложную регистрацию
    Показать сообщения:    

    Затерянная колония через торрент
    Скачать бесплатно Затерянная колония
    Затерянная колония скачать торрент
    Затерянная колония смотреть онлайн
    Cкачать фильм Затерянная колония бесплатно
    Затерянная колония скачать торрент в хорошем качестве
    Затерянная колония смотреть онлайн бесплатно в хорошем качестве


    Вы не можете начинать темы
    Вы не можете отвечать на сообщения
    Вы не можете редактировать свои сообщения
    Вы не можете удалять свои сообщения
    Вы не можете голосовать в опросах
    Вы не можете прикреплять файлы к сообщениям
    Вы можете скачивать файлы