Ссылка на приватное зеркало всего за 1$. Внимание количество ограничено!!!

iTunes

iTunes

iTunes

1

iTunes

iTunes

iTunes

iTunes

iTunes

30
pack

Новость дня

ВАЖНО

!!Акция!!

Alien_RageХит недели

RePack

Resident Evil 21

ИГРА 18+

pack

RePack

jed

!!Акция!!

Alien_Rage

RePack

fifa19

RePack

Assassins Creed: Odyssey

RePack

NEED FOR SPEED™ PAYBACK

4 сезон

9 сезон

Бесстыжие 9 сезон

Все сериалы

все сериалы на PB.wtf

RePack

FAR CRY 5
  

Цена страсти / The Ledge (Мэтью Чэпмен / Matthew Chapman) [2011 г., триллер, драма, BDRemux 1080p] DUB piratbit.org

Цена страсти через торрент piratbit.org

Размер: 16.11 GB | Добавлен: 8 лет 6 мес. назад | Торрент скачан:70 раз
Скачать  

03-10-2011 15:49 Цена страсти Скачать торрент  

Цена страсти / The Ledge Год выпуска: 2011
Страна: США
Жанр: триллер, драма
Продолжительность: 1:40:50
Перевод: Профессиональный (полное дублирование)
Субтитры: русские, английские
Режиссер: Мэтью Чэпмен / Matthew Chapman

В ролях: Чарли Ханнэм, Лив Тайлер, Патрик Уилсон, Терренс Ховард, Кристофер Горам, Моника Акоста, Жаклин Флеминг, Джиллиан Басерсон, Майк Пневски, Катя Гомез, Дин Дж. Уэст, Эмбер Гайани, Мелоди Ноэль, Джеральдин Сингер, Шон Пол Бро, Натан Алан Томас, Mindy Caraccioli, Томас С. Дэниэл, Джейсон Джонсон, Грейси МакКоли, Дон Линкольн, Маверик Бадрикс, Алисса Тейт, Синди Уильямсон, Мишель Ван, Джон Т. Уилсон мл.

Описание: «У нас прыгун!». Сколько раз офицер полиции Холлис Лучетти слышал эту фразу. В очередной раз он должен уговорить человека, стоящего на карнизе крыши, отказаться от прыжка. И всё это не в самый простой день для него самого. Время идёт, и Холлис начинает понимать, что всё идёт не так, как обычно в таких случаях. В течении часа он узнаёт не только о невероятной истории любви и страсти Шаны и Гэвина, но и цене, которую придётся заплатить всем.

Качество: BDRemux
Формат: MKV
Видео: MPEG-4 AVC Video 19972 kbps 1080p / 23.976 fps / 16:9 / High Profile 4.1
Аудио: Dolby Digital Audio Russian 5.1 / 48 kHz / 384 kbps
Аудио: DTS-HD Master Audio English 5.1 / 48 kHz / 2526 kbps / 24-bit (DTS Core: 5.1 / 48 kHz / 1509 kbps / 24-bit)
General
Unique ID : 246861427760814202379523656507766104707 (0xB9B7C815E179486F94A5310DAB046283)
Complete name : G:\bluray\The.Ledge.2011.1080p.Bluray.AVC.Remux.mkv
Format : Matroska
Format version : Version 2
File size : 16.1 GiB
Duration : 1h 40mn
Overall bit rate : 22.9 Mbps
Movie name : The.Ledge.2011.1080p.Bluray.AVC.Remux
Encoded date : UTC 2011-10-01 16:12:28
Writing application : mkvmerge v5.0.0 ('Die Wahre Liebe') built on Sep 25 2011 20:33:49
Writing library : libebml v1.2.2 + libmatroska v1.3.0
Video
ID : 1
Format : AVC
Format/Info : Advanced Video Codec
Format profile : High@L4.1
Format settings, CABAC : Yes
Format settings, ReFrames : 4 frames
Codec ID : V_MPEG4/ISO/AVC
Duration : 1h 40mn
Bit rate mode : Variable
Bit rate : 20.5 Mbps
Maximum bit rate : 39.0 Mbps
Width : 1 920 pixels
Height : 1 080 pixels
Display aspect ratio : 16:9
Frame rate : 23.976 fps
Color space : YUV
Chroma subsampling : 4:2:0
Bit depth : 8 bits
Scan type : Progressive
Bits/(Pixel*Frame) : 0.412
Stream size : 14.4 GiB (90%)
Title : uralmix
Audio #1
ID : 2
Format : AC-3
Format/Info : Audio Coding 3
Mode extension : CM (complete main)
Codec ID : A_AC3
Duration : 1h 40mn
Bit rate mode : Constant
Bit rate : 384 Kbps
Channel(s) : 6 channels
Channel positions : Front: L C R, Side: L R, LFE
Sampling rate : 48.0 KHz
Bit depth : 16 bits
Compression mode : Lossy
Stream size : 277 MiB (2%)
Title : Дубляж
Language : Russian
Audio #2
ID : 3
Format : DTS
Format/Info : Digital Theater Systems
Format profile : MA / Core
Codec ID : A_DTS
Duration : 1h 40mn
Bit rate mode : Variable
Bit rate : 1 561 Kbps / 1 510 Kbps
Channel(s) : 6 channels
Channel positions : Front: L C R, Side: L R, LFE
Sampling rate : 48.0 KHz
Bit depth : 24 bits
Compression mode : Lossless / Lossy
Language : English
Text #1
ID : 4
Format : UTF-8
Codec ID : S_TEXT/UTF8
Codec ID/Info : UTF-8 Plain Text
Language : Russian
Text #2
ID : 5
Format : UTF-8
Codec ID : S_TEXT/UTF8
Codec ID/Info : UTF-8 Plain Text
Language : English
Menu
00:00:00.000 : en:00:00:00.000
00:08:38.268 : en:00:08:38.268
00:15:57.165 : en:00:15:57.165
00:22:48.492 : en:00:22:48.492
00:29:51.415 : en:00:29:51.415
00:37:08.393 : en:00:37:08.393
00:44:27.081 : en:00:44:27.081
00:52:22.723 : en:00:52:22.723
01:00:20.158 : en:01:00:20.158
01:08:16.634 : en:01:08:16.634
01:16:22.995 : en:01:16:22.995
01:24:02.579 : en:01:24:02.579
01:30:12.407 : en:01:30:12.407
01:36:50.430 : en:01:36:50.430
в сети лежит (на момент публикации ремукса) мусор с таким спектром , здесь же

piratbit.org



Скачать Цена страсти через торрент http://i30.fastpic.ru/big/2011/0917/9a/2a94c94475d7b90bd95aba95ed1fbb9a.jpg Скачать фильм Цена страсти через торрент бесплантно в хорошем качестве Описание: «У нас прыгун!». Сколько раз офицер полиции Холлис Лучетти слышал эту фразу. В очередной раз он должен уговорить человека, ... 10 10 1
Info! Золотая раздача, скачанное не засчитывается.
Торрент: Зарегистрирован [2011-10-03 15:49] · скачан: 70 раз
Статус: √ проверено
Размер: 16.11 GB
Как cкачать? Как скачать Цена страсти через торрент | qTorrent

28-11-2019 20:33  

Отключить всю рекламу на сайте

    Дорогой пользователь! Огромная просьба, поблагодарите релизера, оцените раздачу и оставьте свои комментарий, если Вы скачали Цена страсти через торрент бесплатно! Внесите свою лепту в развитие PiratBit!
    Комментировать посты могут только пользователи прошедшие не сложную регистрацию
    Показать сообщения:    

    Цена страсти через торрент
    Скачать бесплатно Цена страсти
    Цена страсти скачать торрент
    Цена страсти смотреть онлайн
    Cкачать фильм Цена страсти бесплатно
    Цена страсти скачать торрент в хорошем качестве
    Цена страсти смотреть онлайн бесплатно в хорошем качестве


    Вы не можете начинать темы
    Вы не можете отвечать на сообщения
    Вы не можете редактировать свои сообщения
    Вы не можете удалять свои сообщения
    Вы не можете голосовать в опросах
    Вы не можете прикреплять файлы к сообщениям
    Вы можете скачивать файлы