Anonymous, добрый день, присоединяйтесь к нам в Telegram!, здесь всегда актуальный адрес сайта, оперативная поддержка и многое другое!

>

5.5

iTunes

7.4

iTunes

7.9

iTunes

1

7.7

1 сезон

6.8

iTunes

7.3

1 сезон

13

6.7

1 сезон

8.3

RePack

30

ULTIMATE

pack

9.9

Лицензия

ВАЖНО

ИГРА 18+

pack

7.3

RePack

MK11

7.7

RePack

jed

7.8

RePack

fifa19

8.5

RePack

RDR2

RePack

NEED FOR SPEED™ PAYBACK

4 сезон

9 сезон

Бесстыжие 9 сезон

Все сериалы

все сериалы на PB.wtf

RePack

FAR CRY 5

Anonymous, добрый день, мы катастрофически не успеваем собрать деньги на оплату серверов, помогите нам пожалуйста 5,10,15р., для нас важна любая помощь . В качестве благодарности мы отключим Вам всю рекламу на сайте (укажите свой ник в строку Ваше имя)!

×
  
Magnet ссылка

Хэйвен / Haven / Сезон: 2 / Серии 1-7 (13) (Тим Соутэм, Т.У. Пикок) [2011 г., фэнтези, триллер, драма, детектив, WEB-DLRip] (Кубик в Кубе / Original) piratbit.org

Хэйвен через торрент piratbit.org

Размер: 5.47 GB | Добавлен: 10 лет назад | Торрент скачан:77 раз
Смотреть онлайн Хэйвен | Скачать    Ребята, помогите собрать деньги на оплату серверов!!!

08-10-2011 20:27 Хэйвен Скачать торрент  

Хэйвен / Haven

Год выхода в эфир: 2011
Страна: Канада
Жанр: фэнтези, триллер, драма, детектив
Продолжительность: ~ 00:45:00
Перевод: Профессиональный (двухголосый, закадровый) /Кубик в Кубе/
Субтитры: есть (Русские / Английские *.srt)
Режиссер: Тим Соутэм, Т.У. Пикок, Рейчел Тэлалей

В ролях: Эмили Роуз, Лукас Брайант, Николас Кэмпбелл, Эрик Бальфур, Ричард Донат, Джон Дансуорт и др.

Описание: В маленький город Хейвен приезжает агент ФБР Одри Паркер, чтобы расследовать смерть бывшего преступника. Из-за своего природного любопытства она попала в эпицентр этого необычного анклава, который, оказывается, издавна служил пристанищем для людей со сверхспособностями. Среди местных жителей города полицейский Натан Вурно, который стал напарником Одри, и загадочный и обаятельный мастер на все руки Дюк Крокер.

Качество: WEB-DLRip
Формат:AVI

Видео кодек: XviD
Аудио кодек: AC3
Видео: 720*400 (1.80), 23.976 fps, XviD MPEG-4, ~1865 kbps, 0.270 bit/pixel
Аудио #1: 48 kHz, AC3 Dolby Digital, 3/2 (L,C,R,l,r) + LFE ch, ~384.00 kbps avg |Кубик в Кубе|
Аудио #2: 48 kHz, AC3 Dolby Digital, 3/2 (L,C,R,l,r) + LFE ch, ~384.00 kbps avg |Original|
Озвучка: Кубик в Кубе
Перевод: TrueTransLate
Работа со звуком и субтитрами: vlaluk
Рип видео: svm-mfs





- 15.07.2011 - 01 - Повесть о двух Одри / A Tale of Two Audreys
- 22.07.2011 - 02 - Страх и ненависть / Fear & Loathing
- 29.07.2011 - 03 - Любящие машины / Love Machine
- 05.08.2011 - 04 - Искры и развлечения / Sparks and Recreation
- 12.08.2011 - 05 - Roots
- 19.08.2011 - 06 - Audrey Parker's Day Off
- 26.08.2011 - 07 - The Tides That Bind

GeneralComplete name : E:\Haven - S2 - [WEB-DLRip] (Кубик в Кубе)\Haven.s02e01.WEB-DLRip.[k3].Rus-Eng.-SVM.aviFormat : AVIFormat/Info : Audio Video InterleaveFile size : 801 MiBDuration : 42mn 17sOverall bit rate : 2 647 KbpsWriting application : VirtualDubMod 1.5.10.2 (build 2540/release)Writing library : VirtualDubMod build 2540/release
VideoID : 0Format : MPEG-4 VisualFormat profile : Advanced Simple@L5Format settings, BVOP : YesFormat settings, QPel : NoFormat settings, GMC : No warppointsFormat settings, Matrix : Default (MPEG)Muxing mode : Packed bitstreamCodec ID : XVIDCodec ID/Hint : XviDDuration : 42mn 17sBit rate : 1 865 KbpsWidth : 720 pixelsHeight : 400 pixelsDisplay aspect ratio : 16:9Frame rate : 23.976 fpsResolution : 8 bitsColorimetry : 4:2:0Scan type : ProgressiveBits/(Pixel*Frame) : 0.270Stream size : 564 MiB (70%)Writing library : XviD 1.2.1 (UTC 2008-12-04)
Audio #1ID : 1Format : AC-3Format/Info : Audio Coding 3Codec ID : 2000Duration : 42mn 17sBit rate mode : ConstantBit rate : 384 KbpsChannel(s) : 6 channelsChannel positions : Front: L C R, Surround: L R, LFESampling rate : 48.0 KHzStream size : 116 MiB (15%)Alignment : Split accross interleavesInterleave, duration : 42 ms (1.00 video frame)Interleave, preload duration : 500 ms
Audio #2ID : 2Format : AC-3Format/Info : Audio Coding 3Codec ID : 2000Duration : 42mn 17sBit rate mode : ConstantBit rate : 384 KbpsChannel(s) : 6 channelsChannel positions : Front: L C R, Surround: L R, LFESampling rate : 48.0 KHzStream size : 116 MiB (15%)Alignment : Split accross interleavesInterleave, duration : 42 ms (1.00 video frame)Interleave, preload duration : 500 ms

Внимание! Раздача ведётся путём добавления новых серий; при каждом добавлении создётся новый торрент. Чтобы начать докачку новой серии, пользователям необходимо сделать следующее:
(1) остановить скачивание,
(2) удалить старый торрент у себя из клиента (старые серии удалять не надо),
(3) скачать новый торрент и запустить его у себя в клиенте вместо старого, при этом указать клиенту путь в старую папку куда и должно происходить скачивание новых серий.
Ваш клиент при этом должен произвести хеширование (проверку) старой папки (если не производит сам - помогите ему сделать это), и будет докачивать только те серии которых у вас ещё нет. Старые серии при этом не удаляются, а продолжают раздаваться!
Eсли вы уже удалили старые серии, то предотвратить повторную закачку старых серий можно, отжав галочку в соответсвующих местах при запуске нового торрента.
piratbit.org



Скачать Хэйвен через торрент http://i31.fastpic.ru/big/2011/1007/c8/16a788df88f6b9d06a946e579322fac8.png Скачать, смотреть онлайн Хэйвен бесплантно в хорошем качестве Описание: В маленький город Хейвен приезжает агент ФБР Одри Паркер, чтобы расследовать смерть бывшего преступника. Из-за своего природного ... 4.6 10 5
Info! Золотая раздача, скачанное не засчитывается.
Торрент: Зарегистрирован [2011-10-08 20:27] · скачан: 77 раз
Статус: √ проверено
Размер: 5.47 GB
Как cкачать? Как скачать Хэйвен через торрент | UTorrent

28-11-2019 20:33  

Отключить всю рекламу на сайте

26-06-2012 14:34 Хэйвен Скачать торрент  

Хороший сериал. 1 сезон смотрел во времена, когда тот еще выходил. Надеюсь второй не хуже.piratbit.org



27-01-2013 14:50 Хэйвен Скачать торрент  

а где остальніе серии?piratbit.org



    Дорогой пользователь! Огромная просьба, поблагодарите релизера, оцените раздачу и оставьте свои комментарий, если Вы скачали Хэйвен через торрент бесплатно!
    Комментировать посты могут только пользователи прошедшие не сложную регистрацию
    Показать сообщения:    

    Хэйвен через торрент
    Скачать бесплатно Хэйвен
    Хэйвен скачать торрент
    Хэйвен смотреть онлайн
    Cкачать фильм Хэйвен бесплатно
    Хэйвен скачать торрент в хорошем качестве
    Хэйвен смотреть онлайн бесплатно в хорошем качестве


    Вы не можете начинать темы
    Вы не можете отвечать на сообщения
    Вы не можете редактировать свои сообщения
    Вы не можете удалять свои сообщения
    Вы не можете голосовать в опросах
    Вы не можете прикреплять файлы к сообщениям
    Вы можете скачивать файлы