Anonymous, добрый день, присоединяйтесь к нам в Telegram!, здесь всегда актуальный адрес сайта, оперативная поддержка и многое другое!

>

5.6

iTunes

7.4

iTunes

5.7

MVO

1

7.7

1 сезон

6.8

iTunes

7.3

1 сезон

13

6.7

1 сезон

8.3

RePack

30

ULTIMATE

pack

9.9

Лицензия

ВАЖНО

ИГРА 18+

pack

7.3

RePack

MK11

7.7

RePack

jed

7.8

RePack

fifa19

8.5

RePack

RDR2

RePack

NEED FOR SPEED™ PAYBACK

4 сезон

9 сезон

Бесстыжие 9 сезон

Все сериалы

все сериалы на PB.wtf

RePack

FAR CRY 5

Anonymous, добрый день, мы катастрофически не успеваем собрать деньги на оплату серверов, помогите нам пожалуйста 5,10,15р., для нас важна любая помощь . В качестве благодарности мы отключим Вам всю рекламу на сайте (укажите свой ник в строку Ваше имя)!

×
  
Magnet ссылка

Лютер / Luther / 1 сезон / 01-06 серии (06) (Браян Кирк) [2010, драма, детектив, HDTV 720p] (Кубик в Кубе) piratbit.org

Лютер через торрент piratbit.org

Размер: 8.23 GB | Добавлен: 10 лет назад | Торрент скачан:52 раза
Смотреть онлайн Лютер | Скачать    Ребята, помогите собрать деньги на оплату серверов!!!

13-10-2011 19:31 Лютер Скачать торрент  

Лютер / Luther
Год выпуска: 2010
Выпущено: BBC ONE
Жанр: драма, детектив
Продолжительность: ~ 00:58:00
Перевод: Профессиональный (двухголосый, закадровый) (Кубик в кубе)
Субтитры: Отсутствуют
Режиссер: Браян Кирк
В ролях: Идрис Эльба, Рут Уилсон, Стивен Макинтош, Индира Варма, Саския Ривз, Уоррен Браун, Пол МакГэнн и Дермот Краули
Описание: Мрачная психологическая криминальная драма, рассказывающая о гениальном детективе , страдающем от собственных демонов. Он может быть таким же опасным, как и убийцы, которых он ловит.
Качество: HDTV 720p
Формат: MKV
Видео кодек: h264
Аудио кодек: AC3
Видео: 1280 x 720 (16:9), 25.000 fps, 2565 kbps, 0.111 bit/pixel
Аудио Rus: AC3, 48000Hz 192 kb/s, 2 channels
Аудио Eng: AC3, 48000Hz 192 kb/s, 2 channels
Релиз от:
Перевод: elle elettrica
Подготовка видео: vadimdexter
Озвучка: КвК
Монтаж и работа со звуком: jugin
Общее
Уникальный идентификатор : 199346713504089162553645357816908171673 (0x95F8C7CDE1F9632FAB296FB557194999)
Полное имя : G:\Video2\Serials\luther.s01.hdtv.720p.rus.eng.novafilm.tv\luther.s01e01.hdtv.720p.rus.eng.novafilm.tv.mkv
Формат : Matroska
Версия формата : Version 2
Размер файла : 1,22 Гбайт
Продолжительность : 58 м.
Общий поток : 3009 Кбит/сек
Дата кодирования : UTC 2011-06-19 13:44:07
Программа кодирования : mkvmerge v2.9.0 ('Moanin'') built on May 22 2009 17:46:31
Библиотека кодирования : libebml v0.7.7 + libmatroska v0.8.1

Видео
Идентификатор : 1
Формат : AVC
Формат/Информация : Advanced Video Codec
Профиль формата : High@L4.1
Параметр CABAC формата : Да
Параметр ReFrames формата : 9 кадров
Идентификатор кодека : V_MPEG4/ISO/AVC
Продолжительность : 58 м.
Битрейт : 2565 Кбит/сек
Ширина : 1280 пикс.
Высота : 720 пикс.
Соотношение сторон : 16:9
Частота кадров : 25,000 кадр/сек
Цветовое пространство : YUV
Подвыборка цветности : 4:2:0
Битовая глубина : 8 бит
Тип развёртки : Прогрессивная
Бит/(Пиксели*Кадры) : 0.111
Размер потока : 1,04 Гбайт (85%)
Заголовок : H.264 720p HDTV
Библиотека кодирования : x264 core 98 r1649 20cbe10
Настройки программы : cabac=1 / ref=9 / deblock=1:-2:-2 / analyse=0x3:0x133 / me=umh / subme=10 / psy=1 / psy_rd=1.00:0.25 / mixed_ref=1 / me_range=24 / chroma_me=1 / trellis=2 / 8x8dct=1 / cqm=0 / deadzone=21,11 / fast_pskip=0 / chroma_qp_offset=-4 / threads=12 / sliced_threads=0 / nr=10 / decimate=0 / interlaced=0 / constrained_intra=0 / bframes=6 / b_pyramid=2 / b_adapt=2 / b_bias=0 / direct=3 / weightb=1 / weightp=2 / keyint=250 / keyint_min=25 / scenecut=40 / intra_refresh=0 / rc_lookahead=60 / rc=crf / mbtree=1 / crf=20.0 / qcomp=0.80 / qpmin=10 / qpmax=51 / qpstep=4 / vbv_maxrate=40000 / vbv_bufsize=30000 / crf_max=0.0 / ip_ratio=1.10 / aq=1:1.00 / nal_hrd=none
Язык : English

Аудио #1
Идентификатор : 2
Формат : AC-3
Формат/Информация : Audio Coding 3
Расширение режима : CM (complete main)
Идентификатор кодека : A_AC3
Продолжительность : 58 м.
Вид битрейта : Постоянный
Битрейт : 192 Кбит/сек
Каналы : 2 канала
Расположение каналов : Front: L R
Частота : 48,0 КГц
Битовая глубина : 16 бит
Метод сжатия : С потерями
Размер потока : 79,9 Мбайт (6%)
Язык : Russian

Аудио #2
Идентификатор : 3
Формат : AC-3
Формат/Информация : Audio Coding 3
Расширение режима : CM (complete main)
Идентификатор кодека : A_AC3
Продолжительность : 58 м.
Вид битрейта : Постоянный
Битрейт : 192 Кбит/сек
Каналы : 2 канала
Расположение каналов : Front: L R
Частота : 48,0 КГц
Битовая глубина : 16 бит
Метод сжатия : С потерями
Размер потока : 79,9 Мбайт (6%)
Язык : English
piratbit.org



Скачать Лютер через торрент https://pic1.kartinco.top/images/2011/ywopfqp2r9.jpg Скачать, смотреть онлайн Лютер бесплантно в хорошем качестве Описание: Мрачная психологическая криминальная драма, рассказывающая о гениальном детективе , страдающем от собственных демонов. Он может ... 8.3 10 11
Info! Золотая раздача, скачанное не засчитывается.
Торрент: Зарегистрирован [2011-10-13 19:31] · скачан: 52 раз
Статус: √ проверено
Размер: 8.23 GB
Как cкачать? Как скачать Лютер через торрент | UTorrent

% Раздел Тема Автор DL S | L
Зарубежные сериалы [ 3.52 GB ] Лютер / Luther / 1 сезон / 01-06 серии [2010 HDTVRip] [DVO] killermax2013 Скачать
1 | 0

28-11-2019 20:33  

Отключить всю рекламу на сайте

30-04-2012 11:53 Лютер Скачать торрент  

может кто-то будет раздаватьpiratbit.org



01-05-2012 11:58 Лютер Скачать торрент  

наверно раздовать никто не будет
прийдётся качать на другом торентеpiratbit.org



    Дорогой пользователь! Огромная просьба, поблагодарите релизера, оцените раздачу и оставьте свои комментарий, если Вы скачали Лютер через торрент бесплатно!
    Комментировать посты могут только пользователи прошедшие не сложную регистрацию
    Показать сообщения:    

    Лютер через торрент
    Скачать бесплатно Лютер
    Лютер скачать торрент
    Лютер смотреть онлайн
    Cкачать фильм Лютер бесплатно
    Лютер скачать торрент в хорошем качестве
    Лютер смотреть онлайн бесплатно в хорошем качестве


    Вы не можете начинать темы
    Вы не можете отвечать на сообщения
    Вы не можете редактировать свои сообщения
    Вы не можете удалять свои сообщения
    Вы не можете голосовать в опросах
    Вы не можете прикреплять файлы к сообщениям
    Вы можете скачивать файлы