Anonymous, доброй ночи, присоединяйтесь к нам в Telegram!, здесь всегда актуальный адрес сайта, оперативная поддержка и многое другое!

>

5.5

iTunes

7.4

iTunes

7.9

iTunes

1

7.7

1 сезон

6.8

iTunes

7.3

1 сезон

13

6.7

1 сезон

8.3

RePack

30

ULTIMATE

pack

9.9

Лицензия

ВАЖНО

ИГРА 18+

pack

7.3

RePack

MK11

7.7

RePack

jed

7.8

RePack

fifa19

8.5

RePack

RDR2

RePack

NEED FOR SPEED™ PAYBACK

4 сезон

9 сезон

Бесстыжие 9 сезон

Все сериалы

все сериалы на PB.wtf

RePack

FAR CRY 5

Anonymous, доброй ночи, мы катастрофически не успеваем собрать деньги на оплату серверов, помогите нам пожалуйста 5,10,15р., для нас важна любая помощь . В качестве благодарности мы отключим Вам всю рекламу на сайте (укажите свой ник в строку Ваше имя)!

×
  
Magnet ссылка

Незабываемое / Unforgettable / Сезон: 1 / Серии: 1-13 (22) (Нильс Арден Оплев) [2011, Детектив, драма, HDTVRip] VO [Rus & Eng Sub] piratbit.org

Незабываемое через торрент piratbit.org

Размер: 5.04 GB | Добавлен: 9 лет 8 мес. назад | Торрент скачан:4 раза
Смотреть онлайн Незабываемое | Скачать    Ребята, помогите собрать деньги на оплату серверов!!!

23-10-2011 16:05 Незабываемое Скачать торрент  

Незабываемое / Unforgettable
Год выпуска: 2011
Страна: USA
Жанр: детектив, драма
Продолжительность: ~00:43:00
Перевод: Любительский одноголосый (Синица Сергей ака ROLLINGHEAD)
Субтитры: Rus (full), Eng
Режиссер: Нильс Арден Оплев
В ролях: Поппи Монтгомери, Дилан Уолш, Майкл Гэстон, Кевин О. Ранкин, Дая Вайдя, Майкл Дж. Бёрг, Элизер Мейер, Мелоди Уайсс, Роксанна Хоуп, Шоун Майкл
Описание: Драма о женщине-детективе Кэрри Уэлс, обладающей уникальной способностью помнить все, что когда-либо с ней происходило. Она прекрасно выполняет работу благодарая своему дару, но для личной жизни это настоящее проклятие. Правда, одну вещь Кэрри все же не помнит — день, когда ее сестра была убита.
Качество: HDTVRip
Формат: AVI
Видео кодек: XviD
Аудио кодек: MP3
Видео: XviD, 624x352 (16:9), 23.976 Fps, 952 Kbps, 0.181 bit/pixel
Аудио Rus: MP3 , 48 KHz, 2 Ch, 192 Kbps
Аудио Eng: MP3 , 48 KHz, 2 Ch, 160 Kbps
Релиз от: RollingHead
Общее
Полное имя : G:\Video\series\Раздачи\Unforgettable.S01.HDTVRip.2011\Unforgettable.S01E01.HDTVRip.avi
Формат : AVI
Формат/Информация : Audio Video Interleave
Размер файла : 399 Мбайт
Продолжительность : 43 м.
Общий поток : 1286 Кбит/сек
Программа кодирования : VirtualDubMod 1.5.10.1 (build 2439/release)
Библиотека кодирования : VirtualDubMod build 2439/release

Видео
Идентификатор : 0
Формат : MPEG-4 Visual
Профиль формата : Advanced Simple@L5
Параметр BVOP формата : 2
Параметр QPel формата : Нет
Параметр GMC формата : Без точки перехода
Параметр матрицы формата : Default (H.263)
Идентификатор кодека : XVID
Идентификатор кодека/Подсказка : XviD
Продолжительность : 43 м.
Битрейт : 952 Кбит/сек
Ширина : 624 пикс.
Высота : 352 пикс.
Соотношение сторон : 16:9
Частота кадров : 23,976 кадр/сек
Цветовое пространство : YUV
Подвыборка цветности : 4:2:0
Битовая глубина : 8 бит
Тип развёртки : Прогрессивная
Метод сжатия : С потерями
Бит/(Пиксели*Кадры) : 0.181
Размер потока : 295 Мбайт (74%)
Библиотека кодирования : XviD 63

Аудио #1
Идентификатор : 1
Формат : MPEG Audio
Версия формата : Version 1
Профиль формата : Layer 3
Режим : Joint stereo
Идентификатор кодека : 55
Идентификатор кодека/Подсказка : MP3
Продолжительность : 43 м.
Вид битрейта : Постоянный
Битрейт : 192 Кбит/сек
Каналы : 2 канала
Частота : 48,0 КГц
Метод сжатия : С потерями
Размер потока : 59,5 Мбайт (15%)
Выравнивание : Соединение по промежуткам
Продолжительность промежутка : 42 мс. (1,00 видеокадр)
Время предзагрузки промежутка : 504 ms

Аудио #2
Идентификатор : 2
Формат : MPEG Audio
Версия формата : Version 1
Профиль формата : Layer 3
Режим : Joint stereo
Идентификатор кодека : 55
Идентификатор кодека/Подсказка : MP3
Продолжительность : 34 м.
Вид битрейта : Переменный
Битрейт : 160 Кбит/сек
Каналы : 2 канала
Частота : 48,0 КГц
Метод сжатия : С потерями
Размер потока : 39,7 Мбайт (10%)
Выравнивание : Разделение по промежуткам
Продолжительность промежутка : 42 мс. (1,00 видеокадр)
Время предзагрузки промежутка : 500 ms
Библиотека кодирования : LAME3.90.
Настройки программы : -m j -V 4 -q 2 -lowpass 18 --abr 160

Внимание! Раздача ведётся путём добавления новых серий; при каждом добавлении создётся новый торрент. Чтобы начать докачку новой серии, пользователям необходимо сделать следующее:
(1) остановить скачивание,
(2) удалить старый торрент у себя из клиента (старые серии удалять не надо),
(3) скачать новый торрент и запустить его у себя в клиенте вместо старого, при этом указать клиенту путь в старую папку куда и должно происходить скачивание новых серий.

Ваш клиент при этом должен произвести хеширование (проверку) старой папки (если не производит сам - помогите ему сделать это), и будет докачивать только те серии которых у вас ещё нет. Старые серии при этом не удаляются, а продолжают раздаваться!

Eсли вы уже удалили старые серии, то предотвратить повторную закачку старых серий можно, отжав галочку в соответсвующих местах при запуске нового торрента. По возможности, желательно не удалять старые серии как можно дольше чтобы релизёр не столько продолжал раздавать старые серии, а смог сконцентрироваться на новых.
Озвучка от ROLLINGHEAD прекращена, продолжение можно найти здесь:http://pb.wtf/viewtopic.php?t=75487piratbit.org



Скачать Незабываемое через торрент https://pic1.kartinco.top/images/2011/lwcdxgt7pn.jpg Скачать, смотреть онлайн Незабываемое бесплантно в хорошем качестве Описание: Драма о женщине-детективе Кэрри Уэлс, обладающей уникальной способностью помнить все, что когда-либо с ней происходило. Она ... 10 10 1
Info! Золотая раздача, скачанное не засчитывается.
Торрент: Зарегистрирован [2012-02-21 09:04] · скачан: 4 раз
Статус: √ проверено
Размер: 5.04 GB
Как cкачать? Как скачать Незабываемое через торрент | UTorrent

% Раздел Тема Автор DL S | L
Зарубежные сериалы [ 17.74 GB ] Помнить все / Unforgettable / Сезон: 3 / Серии 1-13 [2014 WEB-DL 720p]MVO+Original+SUB Assasinca Скачать
1 | 0
Зарубежные сериалы [ 6.34 GB ] Помнить всё / Незабываемое / Unforgettable / Сезон: 2 / Серии: 1-13 из 13 [2013-2014 WEB-DLRip] MVO + Original Assasinca Скачать
1 | 0


Последний раз редактировалось: Messa-fan (2012-03-07 22:55), всего редактировалось 7 раз(а)

28-11-2019 20:33  

Отключить всю рекламу на сайте

13-11-2011 13:39 Незабываемое Скачать торрент  

Смотрите !"!!piratbit.org





Последний раз редактировалось: VovaKu (2011-12-04 07:56), всего редактировалось 1 раз

30-11-2011 20:00 Незабываемое Скачать торрент  

Добавлены 9-10 серии!piratbit.org



30-11-2011 21:30 Незабываемое Скачать торрент  

Messa-fan
Спасибо, я сериал смотрю мне пришелся по душе, совсем не плохой сюжет.piratbit.org



27-12-2011 15:49 Незабываемое Скачать торрент  

Добавлены 11 серия!piratbit.org



18-02-2012 11:56 Незабываемое Скачать торрент  

Добавлены 12 серия!piratbit.org



21-02-2012 09:05 Незабываемое Скачать торрент  

Добавлены 13 серия!piratbit.org



07-03-2012 22:51 Незабываемое Скачать торрент  

Озвучка от ROLLINGHEAD прекращена, продолжение можно найти здесь:http://pb.wtf/viewtopic.php?t=75487piratbit.org



    Дорогой пользователь! Огромная просьба, поблагодарите релизера, оцените раздачу и оставьте свои комментарий, если Вы скачали Незабываемое через торрент бесплатно!
    Комментировать посты могут только пользователи прошедшие не сложную регистрацию
    Показать сообщения:    

    Незабываемое через торрент
    Скачать бесплатно Незабываемое
    Незабываемое скачать торрент
    Незабываемое смотреть онлайн
    Cкачать фильм Незабываемое бесплатно
    Незабываемое скачать торрент в хорошем качестве
    Незабываемое смотреть онлайн бесплатно в хорошем качестве


    Вы не можете начинать темы
    Вы не можете отвечать на сообщения
    Вы не можете редактировать свои сообщения
    Вы не можете удалять свои сообщения
    Вы не можете голосовать в опросах
    Вы не можете прикреплять файлы к сообщениям
    Вы можете скачивать файлы