Anonymous, добрый день, присоединяйтесь к нам в Telegram!, здесь всегда актуальный адрес сайта, оперативная поддержка и многое другое!

>

5.5

iTunes

7.4

iTunes

7.9

iTunes

1

7.7

1 сезон

6.8

iTunes

7.3

1 сезон

13

6.7

1 сезон

8.3

RePack

30

ULTIMATE

pack

9.9

Лицензия

ВАЖНО

ИГРА 18+

pack

7.3

RePack

MK11

7.7

RePack

jed

7.8

RePack

fifa19

8.5

RePack

RDR2

RePack

NEED FOR SPEED™ PAYBACK

4 сезон

9 сезон

Бесстыжие 9 сезон

Все сериалы

все сериалы на PB.wtf

RePack

FAR CRY 5

Anonymous, добрый день, мы катастрофически не успеваем собрать деньги на оплату серверов, помогите нам пожалуйста 5,10,15р., для нас важна любая помощь . В качестве благодарности мы отключим Вам всю рекламу на сайте (укажите свой ник в строку Ваше имя)!

×
  
Magnet ссылка

Долина Смерти / Death Valley (Сезон: 1. Серии: 01-10 (из 12)) (Дрю Дэйуолт, Jordan Vogt-Roberts, Эрик Аппель) [2011 г., ужасы, комедия, псевдодокументальный., HDTV 720р] piratbit.org

Долина Смерти через торрент piratbit.org

Размер: 5.45 GB | Добавлен: 9 лет назад | Торрент скачан:18 раз

оцените по системе от 1 до 5

 1 (2)

 2 (0)

 3 (1)

 4 (7)

 5 (3)

 5+ (28)

Всего проголосовало : 41

Смотреть онлайн Долина Смерти | Скачать    Ребята, помогите собрать деньги на оплату серверов!!!

31-10-2011 17:12 Долина Смерти Скачать торрент  

Долина Смерти / Death Valley

Год выпуска: 2011
Страна: сша (MTV)
Жанр: ужасы, комедия, псевдодокументальный.
Продолжительность: ~ 00:22 серия
Перевод: Любительский (одноголосый)

Режиссер: Дрю Дэйуолт, Jordan Vogt-Roberts, Эрик Аппель
Продюссер: Tony DiBari, Дэна Ридель, Тим Хили
Сценарий: Эрик Вейнберг, Curtis Gwinn, Spider One

Премьера в мире: 29 августа 2011

В ролях: Таня Рэймонд, Тоби Меули, Вене Л. Аркораки, Брайан Коллен, Тексас Бэттл, Чарли Сандерс, Брюс Джонсон, Канту Р.Дж., Кортни Хэлверсон

Описание: Хоррор-комедия, которая расскажет о людских подвигах спецотдела по борьбе с нежитью – элитного подразделения департамента полиции Лос-Анджелеса, которое было сформировано в 2009 году, когда долину Сан-Фернандо заполонили зомби, вампиры и оборотни. Сериал снят в псевдо-документальном стиле.

Доп. информация: Сериал содержит ненормативную лексику.

оф.сайт сериала: Mtv

General
Unique ID : 175245689351898099898294944925960795248 (0x83D717923624AB74AC13CD9852DA7470)
Complete name : E:\Death.Valley.S01.720p.HDTV.RU.BTT-TEAM\Death.Valley.S01E03.720p.HDTV.RU.BTT-TEAM.mkv
Format : Matroska
Format version : Version 2
File size : 532 MiB
Duration : 20mn 48s
Overall bit rate : 3 575 Kbps
Encoded date : UTC 2011-09-14 19:41:10
Writing application : mkvmerge v4.9.1 ('Ich will') сборка от Jul 11 2011 23:53:15
Writing library : libebml v1.2.1 + libmatroska v1.1.1

Video
ID : 1
Format : AVC
Format/Info : Advanced Video Codec
Format profile : High@L4.1
Format settings, CABAC : Yes
Format settings, ReFrames : 5 frames
Codec ID : V_MPEG4/ISO/AVC
Duration : 20mn 48s
Bit rate : 3 312 Kbps
Width : 1 280 pixels
Height : 720 pixels
Display aspect ratio : 16:9
Frame rate : 23.976 fps
Color space : YUV
Chroma subsampling : 4:2:0
Bit depth : 8 bits
Scan type : Progressive
Bits/(Pixel*Frame) : 0.150
Stream size : 493 MiB (93%)
Writing library : x264 core 116 r2074 2641b9e
Encoding settings : cabac=1 / ref=5 / deblock=1:0:0 / analyse=0x3:0x113 / me=umh / subme=8 / psy=1 / psy_rd=1.00:0.00 / mixed_ref=1 / me_range=16 / chroma_me=1 / trellis=1 / 8x8dct=1 / cqm=0 / deadzone=21,11 / fast_pskip=1 / chroma_qp_offset=-2 / threads=12 / sliced_threads=0 / nr=0 / decimate=1 / interlaced=0 / bluray_compat=0 / constrained_intra=0 / bframes=3 / b_pyramid=2 / b_adapt=2 / b_bias=0 / direct=3 / weightb=1 / open_gop=0 / weightp=2 / keyint=250 / keyint_min=23 / scenecut=40 / intra_refresh=0 / rc_lookahead=50 / rc=crf / mbtree=1 / crf=18.0 / qcomp=0.60 / qpmin=0 / qpmax=69 / qpstep=4 / ip_ratio=1.40 / aq=1:1.00
Language : English

Audio
ID : 2
Format : AC-3
Format/Info : Audio Coding 3
Mode extension : CM (complete main)
Codec ID : A_AC3
Duration : 20mn 48s
Bit rate mode : Constant
Bit rate : 192 Kbps
Channel(s) : 2 channels
Channel positions : Front: L R
Sampling rate : 48.0 KHz
Bit depth : 16 bits
Compression mode : Lossy
Stream size : 28.6 MiB (5%)
Раздача ведётся путём добавления новых серий; при каждом добавлении создаётся новый торрент. Чтобы начать докачку новой серии, пользователям необходимо сделать следующее:
(1) остановить скачивание,
(2) удалить старый торрент у себя из клиента (старые серии удалять не надо),
(3) скачать новый торрент и запустить его у себя в клиенте вместо старого, при этом указать клиенту путь в старую папку куда и должно происходить скачивание новых серий.

Ваш клиент при этом должен произвести хеширование (проверку) старой папки (если не производит сам - помогите ему сделать это), и будет докачивать только те серии которых у вас ещё нет. Старые серии при этом не удаляются, а продолжают раздаваться!

Eсли вы уже удалили старые серии, то предотвратить повторную закачку старых серий можно, отжав галочку в соответствующих местах при запуске нового торрента. По возможности, желательно не удалять старые серии как можно дольше чтобы релизёр не столько продолжал раздавать старые серии, а смог сконцентрироваться на новых.
Качество: HDTV 720р
Формат: MKV
Видео кодек: Другой MPEG4
Аудио кодек: AC3
Видео: 1280x720 (16:9), 23.976 fps, 3775Kbps avg, 0.171 bit/pixel
Аудио: 48 kHz, AC3 Dolby Digital, 2/0 (L,R) ch, ~192 kbps (Русский)
Релиз (и перевод)от:



piratbit.org



Скачать Долина Смерти через торрент http://i30.fastpic.ru/big/2011/1031/06/9a566ab220ec3b1d5aa9134413de0106.jpg Скачать, смотреть онлайн Долина Смерти бесплантно в хорошем качестве Описание: Хоррор-комедия, которая расскажет о людских подвигах спецотдела по борьбе с нежитью – элитного подразделения департамента полиции ... 10 10 2
× Info от релизера! [piratbit.net]
Info! Золотая раздача, скачанное не засчитывается.
Торрент: Зарегистрирован [2011-11-27 15:05] · скачан: 18 раз
Статус: √ проверено
Размер: 5.45 GB
Как cкачать? Как скачать Долина Смерти через торрент | UTorrent

% Раздел Тема Автор DL S | L
National Geographic [ 630 MB ] Nat Geo Wild: Прекрасная Америка: Дикий Юго-Запад. Долина смерти / Wild Southwest. Death Valley [2018 ДокументальныйHDTVRip ] Armstrong Скачать
1 | 0
Документальные фильмы 3D [ 4.47 GB ] Юго-западная Америка 3D: От Долины смерти до Гранд-каньона / America's Southwest 3D: From Grand Canyon To Death Valley [2012 Документальный научно - популярный флора фауна DUB] Half OverUnder / Вертикальная анаморфная стереопара GEKADOL Скачать
1 | 0
Научно-популярные фильмы [ 1.68 GB ] Древний Египет: жизнь и смерть в Долине Царей / Ancient Egypt: Life and Death in the Valley of the Kings [2013 Документальный научно-познавательный исследование SATRip ] sheker187 Скачать
1 | 0
Зарубежные сериалы [ 2.05 GB ] Долина Смерти / Death Valley / Сезон: 1 / Серии: 1-12 из 12 [2011 HDTVRip] Lyfe Скачать
1 | 0
Зарубежные сериалы [ 1.07 GB ] Долина смерти / Death Valley [2011 DVDRipAVC720р.] MrKuzj Скачать
1 | 0
Зарубежные сериалы [ 884 MB ] Долина смерти / Death Valley [2011 документальное HDTVAVC720р] MrKuzj Скачать
1 | 0


Последний раз редактировалось: Finansyst (2011-11-27 15:04), всего редактировалось 6 раз(а)

28-11-2019 20:33  

Отключить всю рекламу на сайте

01-11-2011 22:00 Долина Смерти Скачать торрент  

рекомендую...piratbit.org



12-11-2011 21:56 Долина Смерти Скачать торрент  

добавлена 08 серия...piratbit.org



23-11-2011 22:18 Долина Смерти Скачать торрент  

добавлена 09 серия...piratbit.org



27-11-2011 15:11 Долина Смерти Скачать торрент  

добавил 10ю серию.piratbit.org



07-01-2012 20:50 Долина Смерти Скачать торрент  

Дайте скорости ппц скорость вообще нулеваяpiratbit.org



    Дорогой пользователь! Огромная просьба, поблагодарите релизера, оцените раздачу и оставьте свои комментарий, если Вы скачали Долина Смерти через торрент бесплатно!
    Комментировать посты могут только пользователи прошедшие не сложную регистрацию
    Показать сообщения:    

    Долина Смерти через торрент
    Скачать бесплатно Долина Смерти
    Долина Смерти скачать торрент
    Долина Смерти смотреть онлайн
    Cкачать фильм Долина Смерти бесплатно
    Долина Смерти скачать торрент в хорошем качестве
    Долина Смерти смотреть онлайн бесплатно в хорошем качестве


    Вы не можете начинать темы
    Вы не можете отвечать на сообщения
    Вы не можете редактировать свои сообщения
    Вы не можете удалять свои сообщения
    Вы не можете голосовать в опросах
    Вы не можете прикреплять файлы к сообщениям
    Вы можете скачивать файлы