1 сезон

1 сезон

iTunes

1

КиноПоиск HD

Кинопоиск HD

iTunes

13

1 сезон

RePack

30

Новинка

ВАЖНО

ИГРА 18+

pack

RePack

MK11
pack

Легкие деньги

RePack

jed

RePack

fifa19

RePack

RDR2

RePack

NEED FOR SPEED™ PAYBACK

4 сезон

9 сезон

Бесстыжие 9 сезон

Все сериалы

все сериалы на PB.wtf

RePack

FAR CRY 5
  
Magnet ссылка

Не сдавайся / Restless (Гас Ван Сент / Gus Van Sant) [2011, драма, DVD5] R5 «Columbia/Sonpiratbit.org

Не сдавайся через торрент piratbit.org

Размер: 4.25 GB | Добавлен: 9 лет 5 мес. назад | Торрент скачан:38 раз
Скачать  

09-11-2011 18:33 Не сдавайся Скачать торрент  


Не сдавайся / Restless
«Who do you live for?»
Страна: США
Студия: 360 Pictures Inc., Columbia Pictures, Imagine Entertainment
Жанр: драма
Год выпуска: 2011
Мировая премьера: 6 апреля 2011
Российская премьера: 13 октября 2011, «WDSSPR»
Дата выхода DVD: 15 ноября 2011, «Columbia/Sony»
Продолжительность: 01:27:24
Перевод: Профессиональный (многоголосый закадровый) [Лицензия]
Cубтитры: украинские
Режиссер: Гас Ван Сент / Gus Van Sant
В ролях: Генри Ли Хоппер, Миа Васиковска, Рё Касэ, Скайлер Фиск, Люсия Струс, Джейн Адамс, Пол Парсон, Thomas Lauderdale, Кристофер Д. Хардер, Морган Ли
Описание: Энок, переживший клиническую смерть и потерявший в автокатастрофе родителей, знакомится на похоронах с Аннабель, и вскоре между молодыми людьми завязываются романтические отношения. Позднее оказывается, что Аннабель смертельно больна и именно поэтому она ходит на похороны чужих людей, на одних из которых и встретила Энока. Юноша решает помочь любимой подготовиться к неизбежному.
Бонусы: нет

Качество: DVD5 R5
Формат: DVD-Video
Видео кодек: MPEG2
Аудио кодек: AC3
Видео: PAL 16:9 (720x576(0.623)) MPEG Video, 25,000 кадр/сек, 6459 Кбит/сек
Аудио: Russian (Dolby AC3, 6 ch) 384 Кбит/сек, 48,0 КГц



Title: Рабочий
Size: 4.25 Gb ( 4 460 554 KBytes ) - DVD-5
Enabled regions: 1, 2, 3, 4, 5, 6, 7, 8

VTS_01 :
Play Length: 01:27:24
Video: PAL 16:9 (720x576) VBR, Auto Letterboxed
Audio:
Russian (Dolby AC3, 6 ch)
Subtitles:
Ukrainian

Menu Video:
PAL 16:9 (720x576) VBR
Auto Letterboxed
Menu Audio:
Not specified (Dolby AC3, 6 ch)
Menu Subtitles:
Not specified
Menu Russian Language Unit :
Root Menu
Audio Menu
Chapter (PTT) Menu
Общее
Полное имя : G:\Новинки 2011\Ne.sdavaysya.2011.DVD5\VIDEO_TS\VTS_01_1.VOB
Формат : MPEG-PS
Размер файла : 1024 Мбайт
Продолжительность : 20 м.
Общий поток : 6982 Кбит/сек

Видео
Идентификатор : 224 (0xE0)
Формат : MPEG Video
Версия формата : Version 2
Профиль формата : Main@Main
Параметр BVOP формата : Да
Параметр матрицы формата : Выборочная
Продолжительность : 20 м.
Вид битрейта : Переменный
Битрейт : 6459 Кбит/сек
Максимальный битрейт : 9000 Кбит/сек
Ширина : 720 пикселей
Высота : 576 пикселей
Соотношение сторон : 16:9
Частота кадров : 25,000 кадров/сек
Стандарт вещания : PAL
Цветовое пространство : YUV
Субдискретизация насыщенности : 4:2:0
Битовая глубина : 8 бит
Тип развёртки : Прогрессивная
Порядок развёртки : Верхнее поле первое
Метод сжатия : С потерями
Бит/(Пиксели*Кадры) : 0.623
Размер потока : 947 Мбайт (93%)

Аудио
Идентификатор : 189 (0xBD)-128 (0x80)
Формат : AC-3
Формат/Информация : Audio Coding 3
Расширение режима : CM (complete main)
Режим смешивания : DVD-Video
Продолжительность : 20 м.
Вид битрейта : Постоянный
Битрейт : 384 Кбит/сек
Каналы : 6 каналов
Расположение каналов : Front: L C R, Side: L R, LFE
Частота : 48,0 КГц
Битовая глубина : 16 бит
Метод сжатия : С потерями
Размер потока : 56,3 Мбайт (5%)










piratbit.org



Скачать Не сдавайся через торрент http://i1.imageban.ru/out/2011/11/09/f0a02148d1c6139b63add5f044eb059c.jpg Скачать фильм Не сдавайся через торрент бесплантно в хорошем качестве Описание: Энок, переживший клиническую смерть и потерявший в автокатастрофе родителей, знакомится на похоронах с Аннабель, и вскоре между ... 4.8 10 6
Info! Золотая раздача, скачанное не засчитывается.
Торрент: Зарегистрирован [2011-11-09 18:33] · скачан: 38 раз
Статус: √ проверено
Размер: 4.25 GB
Как cкачать? Как скачать Не сдавайся через торрент | UTorrent

28-11-2019 20:33  

Отключить всю рекламу на сайте

09-11-2011 18:46 Не сдавайся Скачать торрент  

voovaz
Сабы убираются?
Вопрос снят! piratbit.org





Последний раз редактировалось: kapuzin (2011-11-09 19:21), всего редактировалось 1 раз

09-11-2011 18:53 Не сдавайся Скачать торрент  

Даёшь раздачу меньшего размера!piratbit.org



09-11-2011 19:26 Не сдавайся Скачать торрент  

xandry писал(а):

Даёшь раздачу меньшего размера!

Да куда ж меньше то 4 гига это смехотворный размер, особенно в эпоху безлимитного интернета, наоборот, хотелось бы побольше раздач правильного качества - HD с большим битрейтом. К сожалению на этом трекере большинство пользователей предпочитают раздачи размером 1,4 гига а это вообще не размер.piratbit.org



09-11-2011 20:04 Не сдавайся Скачать торрент  

Andrey.U писал(а):

xandry писал(а):

Даёшь раздачу меньшего размера!

Да куда ж меньше то 4 гига это смехотворный размер, особенно в эпоху безлимитного интернета, наоборот, хотелось бы побольше раздач правильного качества - HD с большим битрейтом. К сожалению на этом трекере большинство пользователей предпочитают раздачи размером 1,4 гига а это вообще не размер.

Даже еще меньше: на 700 мега Место экономят Качество многих не волнуетpiratbit.org



10-11-2011 02:09 Не сдавайся Скачать торрент  

kapuzin писал(а):

Andrey.U писал(а):

xandry писал(а):

Даёшь раздачу меньшего размера!

Да куда ж меньше то 4 гига это смехотворный размер, особенно в эпоху безлимитного интернета, наоборот, хотелось бы побольше раздач правильного качества - HD с большим битрейтом. К сожалению на этом трекере большинство пользователей предпочитают раздачи размером 1,4 гига а это вообще не размер.

Даже еще меньше: на 700 мега Место экономят Качество многих не волнует

Ну вот как вам бы сказать я за год уже забил в свой винч для фильмов полтора терабайта и уже пора чистить...я не против качества но блин некоторые фильмы здесь выложены в единственном экземпляре и весят по 20-30 Гбpiratbit.org



10-11-2011 04:48 Не сдавайся Скачать торрент  

Короче раздачи должны быть на любой вкус. Кстати раздача меньшего размера уже появилась, так что всем спасибо, все свободны, так сказать.piratbit.org



    Дорогой пользователь! Огромная просьба, поблагодарите релизера, оцените раздачу и оставьте свои комментарий, если Вы скачали Не сдавайся через торрент бесплатно! Внесите свою лепту в развитие PiratBit!
    Комментировать посты могут только пользователи прошедшие не сложную регистрацию
    Показать сообщения:    

    Не сдавайся через торрент
    Скачать бесплатно Не сдавайся
    Не сдавайся скачать торрент
    Не сдавайся смотреть онлайн
    Cкачать фильм Не сдавайся бесплатно
    Не сдавайся скачать торрент в хорошем качестве
    Не сдавайся смотреть онлайн бесплатно в хорошем качестве


    Вы не можете начинать темы
    Вы не можете отвечать на сообщения
    Вы не можете редактировать свои сообщения
    Вы не можете удалять свои сообщения
    Вы не можете голосовать в опросах
    Вы не можете прикреплять файлы к сообщениям
    Вы можете скачивать файлы