Anonymous, доброй ночи, присоединяйтесь к нам в Telegram!, здесь всегда актуальный адрес сайта, оперативная поддержка и многое другое!

>

5.5

iTunes

7.4

iTunes

7.9

iTunes

1

7.7

1 сезон

6.8

iTunes

7.3

1 сезон

13

6.7

1 сезон

8.3

RePack

30

ULTIMATE

pack

9.9

Лицензия

ВАЖНО

ИГРА 18+

pack

7.3

RePack

MK11

7.7

RePack

jed

7.8

RePack

fifa19

8.5

RePack

RDR2

RePack

NEED FOR SPEED™ PAYBACK

4 сезон

9 сезон

Бесстыжие 9 сезон

Все сериалы

все сериалы на PB.wtf

RePack

FAR CRY 5

Anonymous, доброй ночи, мы катастрофически не успеваем собрать деньги на оплату серверов, помогите нам пожалуйста 5,10,15р., для нас важна любая помощь . В качестве благодарности мы отключим Вам всю рекламу на сайте (укажите свой ник в строку Ваше имя)!

×
  
Magnet ссылка

Босс / Boss / Сезон: 1 / Серии: 1-8 (Полный сезон) (Марио Ван Пиблз) [2011, Драма, HDTV 720p] (NewStudio / БЯКО Рекордс) piratbit.org

Босс через торрент piratbit.org

Размер: 14.18 GB | Добавлен: 9 лет 9 мес. назад | Торрент скачан:9 раз
Смотреть онлайн Босс | Скачать    Ребята, помогите собрать деньги на оплату серверов!!!

12-11-2011 17:57 Босс Скачать торрент  

Босс / Boss
Год выпуска: 2011
Страна: США
Жанр: драма
Продолжительность: ~01:00:00
Перевод: Профессиональный (двухголосый закадровый) (БЯКО Рекордс)
Субтитры: Отсутствуют
Режиссер: Марио Ван Пиблз
В ролях: Келси Грэммер, Конни Нильсен, Джеймс Винсент Мередит, Кэтлин Робертсон, Ханна Уэр, Джефф Хефнер, Стив Ленц, Анита Николь Браун
Описание: Сюжет рассказывает о мэре Чикаго, страдающем тяжелым психическим заболеванием и, в результате, нарушениями памяти и рассудка, но окружающие, включая и его жену, об этом не догадываются. Starz победил в битве за съемки сериала и заказал сразу первый сезон из 8 серий, не дожидаясь выхода на экраны, сериал продлили на второй сезон. Посмотрим, оправдаются ли ожидания создателей Boss.
Качество: HDTV
Формат: MKV
Видео кодек: H.264
Аудио кодек: AC3
Видео: AVC, 1280x720 (16/9), 23.976 fps, 3 031 Kbps (0.137 bit/pixel)
Аудио Rus: AC-3, 48.0 KHz, 6 ch, 384 Kbps
Аудио Eng: AC-3, 48.0 KHz, 2 ch, 384 Kbps
400p версия
Релиз от: NewStudio
Перевод: Илья Белкин
Озвучка: Константин Погодаев, Анна Тух (БЯКО Рекордс)
Работа со звуком: koss
Подготовка видео: koss

Внимание!!! В сериале присутствует ненормативная лексика!
General
Unique ID : 227680179254645606803781773181875813940 (0xAB499B84EC58E5A38873A22BC30E7E34)
Complete name : I:\Раздачи\Раздачи\720p\Boss Season 1 720p (NewStudio)\Boss.s01e01.720p.NewStudio.mkv
Format : Matroska
Format version : Version 2
File size : 1.63 GiB
Duration : 1h 0mn
Overall bit rate : 3 876 Kbps
Encoded date : UTC 2011-11-12 13:40:18
Writing application : mkvmerge v5.0.0 ('Die Wahre Liebe') built on Sep 25 2011 20:33:49
Writing library : libebml v1.2.2 + libmatroska v1.3.0

Video
ID : 1
Format : AVC
Format/Info : Advanced Video Codec
Format profile : High@L4.1
Format settings, CABAC : Yes
Format settings, ReFrames : 9 frames
Codec ID : V_MPEG4/ISO/AVC
Duration : 1h 0mn
Bit rate : 3 031 Kbps
Width : 1 280 pixels
Height : 720 pixels
Display aspect ratio : 16:9
Frame rate : 23.976 fps
Color space : YUV
Chroma subsampling : 4:2:0
Bit depth : 8 bits
Scan type : Progressive
Bits/(Pixel*Frame) : 0.137
Stream size : 1.27 GiB (78%)
Writing library : x264 core 118 r2085 8a62835
Encoding settings : cabac=1 / ref=9 / deblock=1:-3:-3 / analyse=0x3:0x133 / me=esa / subme=10 / psy=1 / psy_rd=1.10:0.10 / mixed_ref=1 / me_range=32 / chroma_me=1 / trellis=2 / 8x8dct=1 / cqm=0 / deadzone=21,11 / fast_pskip=0 / chroma_qp_offset=-3 / threads=8 / sliced_threads=0 / nr=0 / decimate=0 / interlaced=0 / bluray_compat=0 / constrained_intra=0 / bframes=8 / b_pyramid=2 / b_adapt=2 / b_bias=0 / direct=3 / weightb=1 / open_gop=0 / weightp=2 / keyint=250 / keyint_min=23 / scenecut=40 / intra_refresh=0 / rc_lookahead=60 / rc=crf / mbtree=1 / crf=17.0 / qcomp=0.80 / qpmin=0 / qpmax=69 / qpstep=4 / ip_ratio=1.40 / aq=2:0.70
Language : English
Matrix coefficients : BT.709-5, BT.1361, IEC 61966-2-4 709, SMPTE RP177

Audio #1
ID : 2
Format : AC-3
Format/Info : Audio Coding 3
Mode extension : CM (complete main)
Codec ID : A_AC3
Duration : 1h 0mn
Bit rate mode : Constant
Bit rate : 384 Kbps
Channel(s) : 6 channels
Channel positions : Front: L C R, Side: L R, LFE
Sampling rate : 48.0 KHz
Bit depth : 16 bits
Compression mode : Lossy
Stream size : 165 MiB (10%)
Language : Russian

Audio #2
ID : 3
Format : AC-3
Format/Info : Audio Coding 3
Mode extension : CM (complete main)
Codec ID : A_AC3
Duration : 1h 0mn
Bit rate mode : Constant
Bit rate : 384 Kbps
Channel(s) : 2 channels
Channel positions : Front: L R
Sampling rate : 48.0 KHz
Bit depth : 16 bits
Compression mode : Lossy
Delay relative to video : 32ms
Stream size : 165 MiB (10%)
Language : English

Внимание! Раздача ведётся путём добавления новых серий; при каждом добавлении создётся новый торрент. Чтобы начать докачку новой серии, пользователям необходимо сделать следующее:
(1) остановить скачивание,
(2) удалить старый торрент у себя из клиента (старые серии удалять не надо),
(3) скачать новый торрент и запустить его у себя в клиенте вместо старого, при этом указать клиенту путь в старую папку куда и должно происходить скачивание новых серий.

Ваш клиент при этом должен произвести хеширование (проверку) старой папки (если не производит сам - помогите ему сделать это), и будет докачивать только те серии которых у вас ещё нет. Старые серии при этом не удаляются, а продолжают раздаваться!

Eсли вы уже удалили старые серии, то предотвратить повторную закачку старых серий можно, отжав галочку в соответсвующих местах при запуске нового торрента. По возможности, желательно не удалять старые серии как можно дольше чтобы релизёр не столько продолжал раздавать старые серии, а смог сконцентрироваться на новых.
Добавлены 7 и 8 серии!
Сезон окончен.
piratbit.org



Скачать Босс через торрент https://pic1.kartinco.top/images/2011/qohuijeybp.jpg Скачать, смотреть онлайн Босс бесплантно в хорошем качестве Описание: Сюжет рассказывает о мэре Чикаго, страдающем тяжелым психическим заболеванием и, в результате, нарушениями памяти и рассудка, но ... 10 10 2
Info! Золотая раздача, скачанное не засчитывается.
Торрент: Зарегистрирован [2012-01-18 12:25] · скачан: 9 раз
Статус: √ проверено
Размер: 14.18 GB
Как cкачать? Как скачать Босс через торрент | UTorrent

% Раздел Тема Автор DL S | L
Зарубежные сериалы [ 10.28 GB ] Босс / Boss / Сезон: 1 / Серии: 1-8 из 8 [2011 BDRip-HEVC 1080p] MVO [NewStudio] bober100 Скачать
1 | 0
Зарубежные сериалы [ 5.47 GB ] Босс / Boss / Сезон: 1 / Серии: 1-8 [2011 HDTVRip] Messa-fan Скачать
1 | 0


Последний раз редактировалось: Messa-fan (2012-01-18 12:24), всего редактировалось 8 раз(а)

28-11-2019 20:33  

Отключить всю рекламу на сайте

13-11-2011 02:39 Босс Скачать торрент  

Цитата:

страдающем тяжелым психическим заболеванием и, в результате, нарушениями памяти и рассудка, но окружающие, включая и его жену, об этом не догадываются.

тогда наверно они роботы ?piratbit.org



20-11-2011 18:12 Босс Скачать торрент  

Добавлена 2 серия!piratbit.org



30-11-2011 18:04 Босс Скачать торрент  

Добавлена 3 серия!piratbit.org



05-12-2011 14:59 Босс Скачать торрент  

Добавлена 4 серия!piratbit.org



22-12-2011 14:21 Босс Скачать торрент  

Добавлена 5 серия!piratbit.org



28-12-2011 10:55 Босс Скачать торрент  

Добавлена 6 серия!piratbit.org



16-01-2012 20:26 Босс Скачать торрент  

Келси Грэммер получил вчера награду "Золотой глобус" как лучший актер в драме за роль в "Босс".
Две заключительные серии будут озвучены на этой неделеpiratbit.org



18-01-2012 12:24 Босс Скачать торрент  

Добавлены 7 и 8 серии!
Сезон окончен.
piratbit.org



13-02-2013 17:18 Босс Скачать торрент  

уже 2-ю неделю качаю, друзья встаньте на раздачу, ну так же нельзя piratbit.org



    Дорогой пользователь! Огромная просьба, поблагодарите релизера, оцените раздачу и оставьте свои комментарий, если Вы скачали Босс через торрент бесплатно!
    Комментировать посты могут только пользователи прошедшие не сложную регистрацию
    Показать сообщения:    

    Босс через торрент
    Скачать бесплатно Босс
    Босс скачать торрент
    Босс смотреть онлайн
    Cкачать фильм Босс бесплатно
    Босс скачать торрент в хорошем качестве
    Босс смотреть онлайн бесплатно в хорошем качестве


    Вы не можете начинать темы
    Вы не можете отвечать на сообщения
    Вы не можете редактировать свои сообщения
    Вы не можете удалять свои сообщения
    Вы не можете голосовать в опросах
    Вы не можете прикреплять файлы к сообщениям
    Вы можете скачивать файлы