1 сезон

iTunes

iTunes

1

Line

MVO

iTunes

13

1 сезон

RePack

30

Deluxe

pack

Лицензия

ВАЖНО

ИГРА 18+

pack

RePack

MK11

RePack

jed

RePack

fifa19

RePack

RDR2

RePack

NEED FOR SPEED™ PAYBACK

4 сезон

9 сезон

Бесстыжие 9 сезон

Все сериалы

все сериалы на PB.wtf

RePack

FAR CRY 5

Anonymous, добрый день, мы катастрофически не успеваем собрать деньги на оплату серверов, помогите нам пожалуйста 5,10,15р., для нас важна любая помощь . В качестве благодарности мы отключим Вам всю рекламу на сайте (укажите свой ник в строку Ваше имя)!

×
  
Magnet ссылка

(Psychedelic Rock) Pink Floyd - Wish You Were Here [Experience Edition] - 2011, APE (image + .cue), lossless piratbit.org

через торрент piratbit.org

Размер: 627 MB | Добавлен: 9 лет 8 мес. назад | Торрент скачан:16 раз
Скачать  

13-11-2011 19:27 Скачать торрент  

Pink Floyd - Wish You Were Here [Experience Edition]

Страна: UK

Жанр: Psychedelic Rock

Год выпуска: 2011

Формат: APE (image + .cue)

Битрейт аудио: lossless

Продолжительность: 01:51:09

Лейбл: EMI Records Ltd

Каталог №: 50999 029450 2 6

Сканы: Комплект
Продолжительность: 00:44:17
Треклист:
01. Shine on You Crazy Diamond (Parts 1-5) [13:33]
02. Welcome to the Machine [7:32]
03. Have a Cigar [5:08]
04. Wish You Were Here [5:35]
05. Shine on You Crazy Diamond Parts 6-9) [12:30]

Код:

REM GENRE Rock
REM DATE 2011
REM DISCID 410A6005
REM COMMENT "ExactAudioCopy v1.0b2"
PERFORMER "Pink Floyd"
TITLE "Wish You Were Here (2CD Experience Version) CD1"
FILE "Pink Floyd - Wish You Were Here (2CD Experience Version) CD1.ape" WAVE
  TRACK 01 AUDIO
    TITLE "Shine on You Crazy Diamond (Parts 1-5)"
    PERFORMER "Pink Floyd"
    INDEX 01 00:00:00
  TRACK 02 AUDIO
    TITLE "Welcome to the Machine"
    PERFORMER "Pink Floyd"
    INDEX 01 13:32:59
  TRACK 03 AUDIO
    TITLE "Have a Cigar"
    PERFORMER "Pink Floyd"
    INDEX 01 21:04:26
  TRACK 04 AUDIO
    TITLE "Wish You Were Here"
    PERFORMER "Pink Floyd"
    INDEX 01 26:12:15
  TRACK 05 AUDIO
    TITLE "Shine on You Crazy Diamond Parts 6-9)"
    PERFORMER "Pink Floyd"
    INDEX 01 31:46:71

Код:

Exact Audio Copy V1.0 beta 2 from 29. April 2011

EAC extraction logfile from 5. November 2011, 13:39

Pink Floyd / Wish You Were Here (2CD Experience Version) CD1

Used drive  : DVDRW   DRW-6S160P   Adapter: 1  ID: 0

Read mode               : Secure
Utilize accurate stream : Yes
Defeat audio cache      : Yes
Make use of C2 pointers : No

Read offset correction                      : 6
Overread into Lead-In and Lead-Out          : No
Fill up missing offset samples with silence : Yes
Delete leading and trailing silent blocks   : No
Null samples used in CRC calculations       : Yes
Used interface                              : Native Win32 interface for Win NT & 2000

Used output format              : Monkey's Audio Lossless Encoder
Selected bitrate                : High Lossless Compression
Quality                         : High
Add ID3 tag                     : No
Command line compressor         : C:\Program Files\Monkey's Audio\MAC.exe

TOC of the extracted CD

     Track |   Start  |  Length  | Start sector | End sector
    ---------------------------------------------------------
        1  |  0:00.00 | 13:32.59 |         0    |    60958
        2  | 13:32.59 |  7:31.42 |     60959    |    94825
        3  | 21:04.26 |  5:07.64 |     94826    |   117914
        4  | 26:12.15 |  5:34.56 |    117915    |   143020
        5  | 31:46.71 | 12:29.64 |    143021    |   199259

Range status and errors

Selected range

     Filename C:\Users\London\Desktop\Pink Floyd - Wish You Were Here (2CD Experience Version) CD1.wav

     Peak level 100.0 %
     Extraction speed 2.5 X
     Range quality 100.0 %
     Test CRC CA3803E5
     Copy CRC CA3803E5
     Copy OK

No errors occurred

AccurateRip summary

Track  1  not present in database
Track  2  not present in database
Track  3  not present in database
Track  4  not present in database
Track  5  not present in database

None of the tracks are present in the AccurateRip database

End of status report

==== Log checksum 299E2D2D95269E65CF05684C01E709B33A61D3F9CF2D714A02ECFF8D4CF94355 ====

Код:

-----------------------

DON'T MODIFY THIS FILE

-----------------------

PERFORMER: auCDtect Task Manager, ver. 1.5.1RC3 build 1.5.1.4
Copyright (c) 2008-2010 y-soft. All rights reserved
http://y-soft.org

ANALYZER: auCDtect: CD records authenticity detector, version 0.8.2
Copyright (c) 2004 Oleg Berngardt. All rights reserved.
Copyright (c) 2004 Alexander Djourik. All rights reserved.

FILE: Pink Floyd - Wish You Were Here (2CD Experience Version) CD1.ape
  Size: 258569000 Hash: 79890D07C4F9AA1B4C6AC8D8AD6DF79C Accuracy: -m0
  Conclusion: CDDA 100%
  Signature: 31BFF8CFE7F3155923BE6565C0D85E195B8DFCC1

Продолжительность: 01:06:52
Треклист:
01. Shine On You Crazy Diamond (Live at Wembley) [20:23]
02. Raving And Drooling (Live at Wembley) [12:35]
03. You've Got To Be Crazy (Live at Wembley) [18:13]
04. Wine Glases (from 'Household Objects' project) [2:17]
05. Have A Cigar (Alternative Version) [7:12]
06. Wish You Where Here (with Stephane Grappelli) [6:14]

Код:

REM GENRE Rock
REM DATE 2011
REM DISCID 4B0FAC06
REM COMMENT "ExactAudioCopy v1.0b2"
PERFORMER "Pink Floyd"
TITLE "Wish You Were Here [Experience Edition] - CD 2"
FILE "Pink Floyd - Wish You Were Here [Experience Edition] - CD 2.ape" WAVE
  TRACK 01 AUDIO
    TITLE "Shine On You Crazy Diamond (Live at Wembley)"
    PERFORMER "Pink Floyd"
    INDEX 01 00:00:00
  TRACK 02 AUDIO
    TITLE "Raving And Drooling (Live at Wembley)"
    PERFORMER "Pink Floyd"
    INDEX 01 20:22:51
  TRACK 03 AUDIO
    TITLE "You've Got To Be Crazy (Live at Wembley)"
    PERFORMER "Pink Floyd"
    INDEX 01 32:57:68
  TRACK 04 AUDIO
    TITLE "Wine Glases (from 'Household Objects' project)"
    PERFORMER "Pink Floyd"
    INDEX 00 51:07:04
    INDEX 01 51:10:35
  TRACK 05 AUDIO
    TITLE "Have A Cigar (Alternative Version)"
    PERFORMER "Pink Floyd"
    INDEX 00 53:22:55
    INDEX 01 53:26:74
  TRACK 06 AUDIO
    TITLE "Wish You Where Here (with Stephane Grappelli)"
    PERFORMER "Pink Floyd"
    INDEX 00 60:34:67
    INDEX 01 60:38:50

Код:

Exact Audio Copy V1.0 beta 2 from 29. April 2011

EAC extraction logfile from 5. November 2011, 14:39

Pink Floyd / Wish You Were Here [Experience Edition] - CD 2

Used drive  : DVDRW   DRW-6S160P   Adapter: 1  ID: 0

Read mode               : Secure
Utilize accurate stream : Yes
Defeat audio cache      : Yes
Make use of C2 pointers : No

Read offset correction                      : 6
Overread into Lead-In and Lead-Out          : No
Fill up missing offset samples with silence : Yes
Delete leading and trailing silent blocks   : No
Null samples used in CRC calculations       : Yes
Used interface                              : Native Win32 interface for Win NT & 2000

Used output format              : Monkey's Audio Lossless Encoder
Selected bitrate                : High Lossless Compression
Quality                         : High
Add ID3 tag                     : No
Command line compressor         : C:\Program Files\Monkey's Audio\MAC.exe

TOC of the extracted CD

     Track |   Start  |  Length  | Start sector | End sector
    ---------------------------------------------------------
        1  |  0:00.00 | 20:22.51 |         0    |    91700
        2  | 20:22.51 | 12:35.17 |     91701    |   148342
        3  | 32:57.68 | 18:12.42 |    148343    |   230284
        4  | 51:10.35 |  2:16.39 |    230285    |   240523
        5  | 53:26.74 |  7:11.51 |    240524    |   272899
        6  | 60:38.50 |  6:13.43 |    272900    |   300917

Range status and errors

Selected range

     Filename C:\Users\London\Desktop\Pink Floyd - Wish You Were Here [Experience Edition] - CD 2.wav

     Peak level 100.0 %
     Extraction speed 2.4 X
     Range quality 99.9 %
     Test CRC 9117ACD0
     Copy CRC 9117ACD0
     Copy OK

No errors occurred

AccurateRip summary

Track  1  not present in database
Track  2  not present in database
Track  3  not present in database
Track  4  not present in database
Track  5  not present in database
Track  6  not present in database

None of the tracks are present in the AccurateRip database

End of status report

==== Log checksum 04DD71218E883D8605B8C9F2F66086A25C91C4B9CE39B0C1B6764F73698C5577 ====

Код:

-----------------------

DON'T MODIFY THIS FILE

-----------------------

PERFORMER: auCDtect Task Manager, ver. 1.5.1RC3 build 1.5.1.4
Copyright (c) 2008-2010 y-soft. All rights reserved
http://y-soft.org

ANALYZER: auCDtect: CD records authenticity detector, version 0.8.2
Copyright (c) 2004 Oleg Berngardt. All rights reserved.
Copyright (c) 2004 Alexander Djourik. All rights reserved.

FILE: Pink Floyd - Wish You Were Here [Experience Edition] - CD 2.ape
  Size: 368587400 Hash: 06538DB172A2F5C42865E51D967D6174 Accuracy: -m0
  Conclusion: CDDA 99%
  Signature: A5B3B3029947F9DF73534A6953C29E60F67E2DDF

-=Офф. сайт группы=- piratbit.org



Скачать через торрент http://img89.imageshack.us/img89/9070/fronthzm.jpg Скачать фильм через торрент бесплантно в хорошем качестве Треклист: Shine on You Crazy Diamond (Parts 1-5) [13:33] Welcome to the Machine [7:32] Have a Cigar [5:08] Wish You Were Here ... 9.7 10 3
Info! Золотая раздача, скачанное не засчитывается.
Торрент: Зарегистрирован [2011-11-13 20:16] · скачан: 16 раз
Статус: √ проверено
Размер: 627 MB
Как cкачать? Как скачать через торрент | UTorrent

% Раздел Тема Автор DL S | L
Classic Rock & Hard Rock (lossless) [ 2.68 GB ] EVANESCENCE Дискография - 1998-2007 FLAC lossless ser_1985 Скачать
1 | 0
Eurodance, Technopop, Disco (lossless) [ 1.86 GB ] Dr. Alban Студийные альбомы - 5CD [FLAC lossless] tauras Скачать
1 | 0
Action FPS (1st Person) [ 8.89 GB ] Star Wars: The Force Unleashed - Ultimate Sith Edition [Lossless Repack RU/EN] от Druid =Чувак= Скачать
1 | 0
Архив (Alternative, Punk, Independent) [ 1.74 GB ] Breaking Benjamin - Дискография - 2001-2009 FLAC lossless King_IS_Back Скачать
1 | 0
Гоночные симуляторы [ 3.18 GB ] Дальнобойщик​и 3: Золотое Издание [Lossless Repack RU] от R.G. Catalyst roman3310i Скачать
1 | 0
Архив (Многоканальная музыка и собственные оцифровки) [ 405 MB ] Black Sabbath -Heaven & hell - 1980 DTS lossless staryirocker Скачать
1 | 0
RTS (стратегии в реальном времени) [ 4.21 GB ] Command & Conquer 4: Tiberian Twilight [Lossless RePackRUEA] Alex_Zeyn Скачать
1 | 0


Последний раз редактировалось: =GAS= (2011-11-14 08:21), всего редактировалось 1 раз

28-11-2019 20:33  

Отключить всю рекламу на сайте

13-11-2011 20:28 Скачать торрент  

на здоровье :ad:piratbit.org



13-11-2011 22:54 Скачать торрент  

Большое-пребольшое спасибо!!!! А, случайно, из этой серии у Вас "The Dark Side Of The Moon" не "завалялся" ? piratbit.org



14-11-2011 08:20 Скачать торрент  

senseisens писал(а):

Большое-пребольшое спасибо!!!! А, случайно, из этой серии у Вас "The Dark Side Of The Moon" не "завалялся" ?

Специально для Вас выложил Pink Floyd - The Dark Side Of The Moon на здоровье :ad:piratbit.org



15-11-2011 09:51 Скачать торрент  

"Специально для Вас выложил" - Вы меня совсем засмущали Спасибо, что откликнулись на просьбу! :good2:piratbit.org



15-11-2011 10:26 Скачать торрент  

senseisens писал(а):

"Специально для Вас выложил" - Вы меня совсем засмущали Спасибо, что откликнулись на просьбу! :good2:

Не за что. Только то ли я выложил? piratbit.org



15-11-2011 21:47 Скачать торрент  

Не за что. Только то ли я выложил?

Да, это как раз ТО. :good: У меня есть японское издание, а Ваше- Европа. В звуке разницы нет, только в оформлении, но для коллекции и это важно. :good2:piratbit.org



    Дорогой пользователь! Огромная просьба, поблагодарите релизера, оцените раздачу и оставьте свои комментарий, если Вы скачали через торрент бесплатно! Внесите свою лепту в развитие PiratBit!
    Комментировать посты могут только пользователи прошедшие не сложную регистрацию
    Показать сообщения:    

    через торрент
    Скачать бесплатно
    скачать торрент
    смотреть онлайн
    Cкачать фильм бесплатно
    скачать торрент в хорошем качестве
    смотреть онлайн бесплатно в хорошем качестве


    Вы не можете начинать темы
    Вы не можете отвечать на сообщения
    Вы не можете редактировать свои сообщения
    Вы не можете удалять свои сообщения
    Вы не можете голосовать в опросах
    Вы не можете прикреплять файлы к сообщениям
    Вы можете скачивать файлы