Anonymous, добрый день, присоединяйтесь к нам в Telegram!, здесь всегда актуальный адрес сайта, оперативная поддержка и многое другое!

>

5.6

iTunes

7.4

iTunes

5.7

MVO

1

7.7

1 сезон

6.8

iTunes

7.3

1 сезон

13

6.7

1 сезон

8.3

RePack

30

ULTIMATE

pack

9.9

Лицензия

ВАЖНО

ИГРА 18+

pack

7.3

RePack

MK11

7.7

RePack

jed

7.8

RePack

fifa19

8.5

RePack

RDR2

RePack

NEED FOR SPEED™ PAYBACK

4 сезон

9 сезон

Бесстыжие 9 сезон

Все сериалы

все сериалы на PB.wtf

RePack

FAR CRY 5

Anonymous, добрый день, мы катастрофически не успеваем собрать деньги на оплату серверов, помогите нам пожалуйста 5,10,15р., для нас важна любая помощь . В качестве благодарности мы отключим Вам всю рекламу на сайте (укажите свой ник в строку Ваше имя)!

×
  
Magnet ссылка

Шпион / Spy / Сезон: 1 / Серии: 6 из 6 (Симеон Гульден) [2011, комедия, HDTVRip] (Play-Star) piratbit.org

Шпион через торрент piratbit.org

Размер: 1.71 GB | Добавлен: 9 лет назад | Торрент скачан:102 раза
Смотреть онлайн Шпион | Скачать    Ребята, помогите собрать деньги на оплату серверов!!!

30-11-2011 19:32 Шпион Скачать торрент  

Шпион / Spy
Год выпуска: 2011
Страна: Великобритания, Sky1
Жанр: комедия
Продолжительность: ~00:23:00
Перевод: Любительский (многолосый закадровый) (Ivnet Cinema)
Субтитры: Отсутствуют
Режиссер: Симеон Гульден
В ролях: Даррен Бойд, Jude Wright, Роберт Линдсэй, Мэттью Бэйнтон, Том Гудман-Хилл, Ребека Стэтон, Долли Уэллс, Эд Коулмэн, Дэниэл Лоуренс Тейлор, Джеймс Паддефэтт
Описание: Тим - отец-одиночка, у которого очень смышлёный сын Маркус, который постоянно третирует отца, беря пример со своей матери.
Тим хочет произвести впечатление на сына и бросает свою скучную и непрестижную работу в компьютерном магазине и идёт искать работу на биржу труда, где по ошибке его отправляют на собеседование в секретную службу её Величества...
Качество: HDTVRip
Формат: AVI
Видео кодек: XviD
Аудио кодек: MP3
Видео: 720x400, XviD, 25 кадр/сек, 1398kbps avg, 0.23 bit/pixel
Аудио Rus: 48 kHz, MPEG Layer 3, 2 ch, ~192.00 kbps cbr
Аудио Eng: 48 kHz, MPEG Layer 3, 2 ch, ~192.00 kbps cbr
Релиз от: Play-Star
Роли озвучивали: Светлана Муратова, Наталья Ланц, Михаил Шорыгин, Владимир Курдов.
Перевод: AntonioLagrande
Работа со звуком и видео: Михаил Шорыгин
General
Complete name : I:\Раздачи\Раздачи\Spy.s01.[Play-Star]\Spy.S01E01.[Play-Star].avi
Format : AVI
Format/Info : Audio Video Interleave
File size : 289 MiB
Duration : 22mn 30s
Overall bit rate : 1 796 Kbps
Movie name : Spy S01E01 "Codename: Loser"
Writing application : VirtualDubMod 1.5.10.2 (build 2542/release)
Writing library : VirtualDubMod build 2542/release

Video
ID : 0
Format : MPEG-4 Visual
Format profile : Advanced Simple@L5
Format settings, BVOP : 1
Format settings, QPel : No
Format settings, GMC : No warppoints
Format settings, Matrix : Custom
Codec ID : XVID
Codec ID/Hint : XviD
Duration : 22mn 30s
Bit rate : 1 398 Kbps
Width : 720 pixels
Height : 400 pixels
Display aspect ratio : 16:9
Frame rate : 25.000 fps
Color space : YUV
Chroma subsampling : 4:2:0
Bit depth : 8 bits
Scan type : Progressive
Compression mode : Lossy
Bits/(Pixel*Frame) : 0.194
Stream size : 225 MiB (78%)
Writing library : XviD 1.2.1 (UTC 2008-12-04)

Audio #1
ID : 1
Format : MPEG Audio
Format version : Version 1
Format profile : Layer 3
Mode : Joint stereo
Mode extension : MS Stereo
Codec ID : 55
Codec ID/Hint : MP3
Duration : 22mn 30s
Bit rate mode : Constant
Bit rate : 192 Kbps
Channel(s) : 2 channels
Sampling rate : 48.0 KHz
Compression mode : Lossy
Stream size : 30.9 MiB (11%)
Alignment : Aligned on interleaves
Interleave, duration : 40 ms (1.00 video frame)
Interleave, preload duration : 504 ms
Title : Russian [Play-Star]
Writing library : LAME3.98r
Encoding settings : -m j -V 4 -q 3 -lowpass 20 -b 192

Audio #2
ID : 2
Format : MPEG Audio
Format version : Version 1
Format profile : Layer 3
Mode : Joint stereo
Mode extension : MS Stereo
Codec ID : 55
Codec ID/Hint : MP3
Duration : 22mn 29s
Bit rate mode : Constant
Bit rate : 192 Kbps
Channel(s) : 2 channels
Sampling rate : 48.0 KHz
Compression mode : Lossy
Stream size : 30.9 MiB (11%)
Alignment : Aligned on interleaves
Interleave, duration : 40 ms (1.00 video frame)
Interleave, preload duration : 504 ms
Title : English [Original]
Writing library : LAME3.98r
Encoding settings : -m j -V 4 -q 3 -lowpass 20 -b 192

Внимание! Раздача ведётся путём добавления новых серий; при каждом добавлении создётся новый торрент. Чтобы начать докачку новой серии, пользователям необходимо сделать следующее:
(1) остановить скачивание,
(2) удалить старый торрент у себя из клиента (старые серии удалять не надо),
(3) скачать новый торрент и запустить его у себя в клиенте вместо старого, при этом указать клиенту путь в старую папку куда и должно происходить скачивание новых серий.

Ваш клиент при этом должен произвести хеширование (проверку) старой папки (если не производит сам - помогите ему сделать это), и будет докачивать только те серии которых у вас ещё нет. Старые серии при этом не удаляются, а продолжают раздаваться!

Eсли вы уже удалили старые серии, то предотвратить повторную закачку старых серий можно, отжав галочку в соответсвующих местах при запуске нового торрента. По возможности, желательно не удалять старые серии как можно дольше чтобы релизёр не столько продолжал раздавать старые серии, а смог сконцентрироваться на новых.
Добавлена 6 серия!
Сезон окончен!
piratbit.org



Скачать Шпион через торрент https://pic1.kartinco.top/images/2011/r1tj3u5w7a.jpg Скачать, смотреть онлайн Шпион бесплантно в хорошем качестве Описание: Тим - отец-одиночка, у которого очень смышлёный сын Маркус, который постоянно третирует отца, беря пример со своей матери. Тим ... 10 10 1
Info! Золотая раздача, скачанное не засчитывается.
Торрент: Зарегистрирован [2011-12-08 15:18] · скачан: 102 раз
Статус: √ проверено
Размер: 1.71 GB
Как cкачать? Как скачать Шпион через торрент | UTorrent

% Раздел Тема Автор DL S | L
Зарубежные сериалы [ 13.19 GB ] Шпион / The Spy / Сезон: 1 / Серии: 1-6 из 6 [2019 история WEB-DL 1080p] MVO [LostFilm] bober100 Скачать
1 | 0
Зарубежные сериалы [ 13.19 GB ] Шпион / The Spy / Сезон: 1 / Серии: 1-6 из 6 [2019 история WEB-DL 1080p] MVO [TVShows] bober100 Скачать
1 | 0
Зарубежные сериалы [ 8.69 GB ] Шпион / The Spy / Сезон: 1 / Серии: 1-6 из 6 [2019 история WEB-DL 720p] MVO [TVShows] bober100 Скачать
1 | 0
Зарубежные сериалы [ 5.82 GB ] Шпион / The Spy / Сезон: 1 / Серии: 1-6 из 6 [2019 история WEB-DLRip] killermax2013 Скачать
1 | 0
Зарубежные сериалы [ 8.15 GB ] Шпион / The Spy / Сезон: 1 / Серия: 1-6 из 6 [2019 история WEB-DLRip 720p] killermax2013 Скачать
1 | 0
Зарубежные сериалы [ 13.77 GB ] Шпион / The Spy / Сезон: 1 / Серии: 1-6 из 6 [2019 история WEB-DL 1080p] killermax2013 Скачать
1 | 0


Последний раз редактировалось: Messa-fan (2011-12-08 15:18), всего редактировалось 1 раз

28-11-2019 20:33  

Отключить всю рекламу на сайте

30-11-2011 19:40 Шпион Скачать торрент  

От себя хочу заметить что сериал представляет собой очень смешную непошлую комедию.piratbit.org



05-12-2011 16:09 Шпион Скачать торрент  

да, неплохой сериал, мне понравилось))) но английский юмор все таки на любителя...piratbit.org



08-12-2011 15:19 Шпион Скачать торрент  

Добавлена 6 серия!
Сезон окончен!
piratbit.org



08-12-2011 15:37 Шпион Скачать торрент  

Messa-fan
Спасибо за проделанный труд!piratbit.org



08-12-2011 15:41 Шпион Скачать торрент  

-=Cherry=-
Да не за что))).piratbit.org



17-04-2014 16:52 Шпион Скачать торрент  

кто-нибудь станет на раздачу?piratbit.org



    Дорогой пользователь! Огромная просьба, поблагодарите релизера, оцените раздачу и оставьте свои комментарий, если Вы скачали Шпион через торрент бесплатно!
    Комментировать посты могут только пользователи прошедшие не сложную регистрацию
    Показать сообщения:    

    Шпион через торрент
    Скачать бесплатно Шпион
    Шпион скачать торрент
    Шпион смотреть онлайн
    Cкачать фильм Шпион бесплатно
    Шпион скачать торрент в хорошем качестве
    Шпион смотреть онлайн бесплатно в хорошем качестве


    Вы не можете начинать темы
    Вы не можете отвечать на сообщения
    Вы не можете редактировать свои сообщения
    Вы не можете удалять свои сообщения
    Вы не можете голосовать в опросах
    Вы не можете прикреплять файлы к сообщениям
    Вы можете скачивать файлы