Marvel's Avengers Deluxe Edition (супер цена) 159р. Внимание количество ограничено!!!

2 сезон

iTunes

iTunes

1

iTunes

iTunes

iTunes

WEBRip

iTunes

30
pack

Новость дня

ВАЖНО

!!Акция!!

Alien_RageХит недели

RePack

Horizon Zero Dawn

ИГРА 18+

pack

RePack

jed

!!Акция!!

Alien_Rage

RePack

fifa19

RePack

Assassins Creed: Odyssey

RePack

NEED FOR SPEED™ PAYBACK

4 сезон

9 сезон

Бесстыжие 9 сезон

Все сериалы

все сериалы на PB.wtf

RePack

FAR CRY 5
  

Шпана / Kidulthood (Менхай Xада / Menhaj Huda) [2006 г., драма, DVDRip] piratbit.org

Шпана через торрент piratbit.org

Размер: 1.37 GB | Добавлен: 8 лет 9 мес. назад | Торрент скачан:39 раз
Скачать  

12-12-2011 14:40 Шпана Скачать торрент  

Шпана / Kidulthood
Год выпуска: 2006
Страна: Великобритания
Жанр: драма
Продолжительность: 89 мин. / 01:29
Перевод: Профессиональный (двухголосый)

Режиссер: Менхай Xада / Menhaj Huda
Продюссер: Менхай Xада, Джордж Иссак, Дамиан Джонс
Сценарий: Ноэль Кларк


Мировой рейтинг IMDB 6.50 (8 279)
Лицам до 17 лет обязательно присутствие взрослого

В ролях: Амел Амин, Ред Мадрелл, Ноэль Кларк, Адам Дикон, Джэми Уинстон, Femi Oyeniran, Мадлен Фэйрли, Ребекка Мартин, Николас Холт, Адем Байрам


Описание: Обычный день из жизни трёх лондонских подростков Трайфа, Джея и Муни: потасовки в классе, наркотики в школьном дворе и секс. Но после трагического самоубийства одной из учениц школы занятия отменяются, и все резко меняется для этого близкого трио и их окружения. В этот день они будут вынуждены встретиться лицом к лицу со своими собственными ответственностями и виной за все те ситуации, в которые они оказались вовлечены...

Похожие раздачи: Шпана
Качество: DVDRip
Формат: AVI
Видео кодек: XviD
Аудио кодек: AC3
Видео: Xvid 720x544 25.00fps 1 780Kbps
Аудио: Dolby AC3 48000Hz 6ch 448kbps

Format : AVI
Format/Info : Audio Video Interleave
File size : 1.37 GiB
Duration : 1h 27mn
Overall bit rate : 2 235 Kbps
Writing application : VirtualDubMod 1.5.4.1 (build 2178/release)
Writing library : VirtualDubMod build 2178/release

Video
ID : 0
Format : MPEG-4 Visual
Format profile : Advanced Simple@L5
Format settings, BVOP : 1
Format settings, QPel : No
Format settings, GMC : No warppoints
Format settings, Matrix : Custom
Codec ID : XVID
Codec ID/Hint : XviD
Duration : 1h 27mn
Bit rate : 1 780 Kbps
Width : 720 pixels
Height : 544 pixels
Display aspect ratio : 4:3
Frame rate : 25.000 fps
Color space : YUV
Chroma subsampling : 4:2:0
Bit depth : 8 bits
Scan type : Progressive
Compression mode : Lossy
Bits/(Pixel*Frame) : 0.182
Stream size : 1.09 GiB (80%)
Writing library : XviD 1.2.0.dev47 (UTC 2006-11-01)

Audio
ID : 1
Format : AC-3
Format/Info : Audio Coding 3
Mode extension : CM (complete main)
Codec ID : 2000
Duration : 1h 27mn
Bit rate mode : Constant
Bit rate : 448 Kbps
Channel(s) : 6 channels
Channel positions : Front: L C R, Side: L R, LFE
Sampling rate : 48.0 KHz
Bit depth : 16 bits
Compression mode : Lossy
Stream size : 281 MiB (20%)
Alignment : Split accross interleaves
Interleave, duration : 96 ms (2.40 video frames)
Interleave, preload duration : 96 ms
Language : Russian




piratbit.org



Скачать Шпана через торрент http://s50.radikal.ru/i128/1008/d0/ed216faebe0c.jpg Скачать фильм Шпана через торрент бесплантно в хорошем качестве Описание: Обычный день из жизни трёх лондонских подростков Трайфа, Джея и Муни: потасовки в классе, наркотики в школьном дворе и секс. ... 8 10 2
Info! Золотая раздача, скачанное не засчитывается.
Торрент: Зарегистрирован [2011-12-12 14:40] · скачан: 39 раз
Статус: √ проверено
Размер: 1.37 GB
Как cкачать? Как скачать Шпана через торрент | qTorrent

% Раздел Тема Автор DL S | L
Фильмы (Blu-ray, BD-Remux, HDDVD) [ 19.59 GB ] Шпана / Kidulthood [2006 Blu-ray 1080p] DVO Russian Mafia Скачать
1 | 0

28-11-2019 20:33  

Отключить всю рекламу на сайте

12-12-2011 14:45 Шпана Скачать торрент  

Если кому надо могу вторую часть выложитьpiratbit.org



12-12-2011 15:20 Шпана Скачать торрент  

очередные 30-летние пiдростки, у которых там наркотики и секс и чуть более чем на половину толерастная арабо-турецкая тематика, судя по скринамpiratbit.org





Последний раз редактировалось: LuciusFer (2011-12-12 15:56), всего редактировалось 1 раз

12-12-2011 15:36 Шпана Скачать торрент  

и как сериал????piratbit.org



12-12-2011 15:47 Шпана Скачать торрент  

paskalsavage1709, это не сериал, эт фильм в двух частях, неплохой (как по мне)piratbit.org



13-12-2011 08:32 Шпана Скачать торрент  

Да фильм хорош, вторая часть даже больше понравилась.piratbit.org



28-12-2011 13:19 Шпана Скачать торрент  

Вторая часть: http://pb.wtf/viewtopic.php?t=67823piratbit.org



    Дорогой пользователь! Огромная просьба, поблагодарите релизера, оцените раздачу и оставьте свои комментарий, если Вы скачали Шпана через торрент бесплатно! Внесите свою лепту в развитие PiratBit!
    Комментировать посты могут только пользователи прошедшие не сложную регистрацию
    Показать сообщения:    

    Шпана через торрент
    Скачать бесплатно Шпана
    Шпана скачать торрент
    Шпана смотреть онлайн
    Cкачать фильм Шпана бесплатно
    Шпана скачать торрент в хорошем качестве
    Шпана смотреть онлайн бесплатно в хорошем качестве


    Вы не можете начинать темы
    Вы не можете отвечать на сообщения
    Вы не можете редактировать свои сообщения
    Вы не можете удалять свои сообщения
    Вы не можете голосовать в опросах
    Вы не можете прикреплять файлы к сообщениям
    Вы можете скачивать файлы