Anonymous, добрый вечер, присоединяйтесь к нам в Telegram!, здесь всегда актуальный адрес сайта, оперативная поддержка и многое другое!

>

5.6

iTunes

7.4

iTunes

5.7

MVO

1

7.7

1 сезон

6.8

iTunes

7.3

1 сезон

13

6.7

1 сезон

8.3

RePack

30

ULTIMATE

pack

9.9

Лицензия

ВАЖНО

ИГРА 18+

pack

7.3

RePack

MK11

7.7

RePack

jed

7.8

RePack

fifa19

8.5

RePack

RDR2

RePack

NEED FOR SPEED™ PAYBACK

4 сезон

9 сезон

Бесстыжие 9 сезон

Все сериалы

все сериалы на PB.wtf

RePack

FAR CRY 5

Anonymous, добрый вечер, мы катастрофически не успеваем собрать деньги на оплату серверов, помогите нам пожалуйста 5,10,15р., для нас важна любая помощь . В качестве благодарности мы отключим Вам всю рекламу на сайте (укажите свой ник в строку Ваше имя)!

×
  
Magnet ссылка

Мешок с костями / Bag of Bones / Сезон: 1 / Серии: 1 и 2 (2) (Мик Гэррис / Mick Garris) [2011, ужасы, драма, HDTV 720p] MVO (AlexFilm & NewStudio) piratbit.org

Мешок с костями через торрент piratbit.org

Размер: 6.21 GB | Добавлен: 9 лет 9 мес. назад | Торрент скачан:23 раза
Смотреть онлайн Мешок с костями | Скачать    Ребята, помогите собрать деньги на оплату серверов!!!

19-12-2011 23:46 Мешок с костями Скачать торрент  

Мешок с костями / Bag of Bones

Год выпуска: 2011
Страна: США
Жанр: ужасы, драма
Продолжительность: 1 ~ 1:19:22, 2 ~ 1:22:55
Перевод: Профессиональный (многоголосый, закадровый) (AlexFilm & NewStudio)
Субтитры: Английские
Режиссер: Мик Гэррис
В ролях: Пирс Броснан (Майк Нунэн), Аннабет Гиш (Джо Нунэн), Аника Нони Роуз (Сара Тидуэлл), Уильям Шэллерт (Макс Дивоур), Кэйтлин Кармайкл (Кира Дивоур), Дэвид Шефтелль (молодой Макс Дивоур), Гари Леверт (Джордж Футмен), Мелисса Джордж (Мэтти), Джейсон Пристли (Марти)
Описание: У писателя Майка Нунэна от аневризмы умирает жена Джоанна. После её гибели известный на весь мир автор мистических романов намеренно делает из себя затворника, отгородившись от остального мира. Но проходит несколько лет, и по стечению обстоятельств писатель встречает девушку Мэтти, в которую влюбляется, хотя и не желает признаваться в этом самому себе. Его жизнь начинается с чистого листа. После признания в своих чувствах новоявленной невесте Майклу придётся столкнуться с не менее жутким кошмаром, чем смерть собственной жены. Мистические приключения; реалистичные жуткие сны; жестокие родственники Мэтти, пытающиеся отправить писателя на тот свет, и конечно же появляющаяся время от времени Джоанна... Её призрак всё время пытается уберечь Майкла от неверного шага...
Похожие раздачи: Bag of Bones
Качество: HDTV
Формат: MKV
Видео кодек: H.264
Аудио кодек: AC3
Видео: 1280x720 (16:9), 23.976 fps, ~4000 kbps avg, 0.180 bit/pixel (первая серия)
Видео: 1280x720 (16:9), 23.976 fps, 5034 kbps avg, 0.228 bit/pixel (вторая серия)
Аудио Rus: 48 kHz, 6 ch, ~384 kbps
Аудио Eng: 48 kHz, 6 ch, ~384 kbps
352p версия
Релиз от: NewStudio
Перевод: Михаил Зеленский
Роли озвучивали:

Анна Тух
Андрей Федосов
Константин Погодаев
Михаил Суслов

Подготовка видео
: Koss
Работа со звуком: Koss
Общее
Уникальный идентификатор : 231377547167509298712407122610793560261 (0xAE11B1D4E6ED6528B06BE0BF6DC138C5)
Полное имя : I:\Раздачи\Раздачи\720p\Bag.of.Bones.s01.720p.NewStudio_AlexFilm\Bag.of.Bones.s01e01.720p.NewStudio_AlexFilm.mkv
Формат : Matroska
Версия формата : Version 2
Размер файла : 2,74 Гбайт
Продолжительность : 1 ч. 20 м.
Общий поток : 4872 Кбит/сек
Дата кодирования : UTC 2011-12-19 20:47:59
Программа кодирования : mkvmerge v5.1.0 ('And so it goes') built on Nov 28 2011 23:58:28
Библиотека кодирования : libebml v1.2.3 + libmatroska v1.3.0

Видео
Идентификатор : 1
Формат : AVC
Формат/Информация : Advanced Video Codec
Профиль формата : High@L4.1
Параметр CABAC формата : Да
Параметр ReFrames формата : 9 кадров
Идентификатор кодека : V_MPEG4/ISO/AVC
Продолжительность : 1 ч. 20 м.
Битрейт : 4007 Кбит/сек
Ширина : 1280 пикселей
Высота : 720 пикселей
Соотношение сторон : 16:9
Частота кадров : 23,976 кадра/сек
Цветовое пространство : YUV
Субдискретизация насыщенности : 4:2:0
Битовая глубина : 8 бит
Тип развёртки : Прогрессивная
Бит/(Пиксели*Кадры) : 0.181
Размер потока : 2,25 Гбайт (82%)
Библиотека кодирования : x264 core 116 r2074 2641b9e
Настройки программы : cabac=1 / ref=9 / deblock=1:-1:-1 / analyse=0x3:0x113 / me=umh / subme=9 / psy=1 / psy_rd=1.00:0.15 / mixed_ref=1 / me_range=16 / chroma_me=1 / trellis=1 / 8x8dct=1 / cqm=0 / deadzone=21,11 / fast_pskip=1 / chroma_qp_offset=-3 / threads=3 / sliced_threads=0 / nr=0 / decimate=1 / interlaced=0 / bluray_compat=0 / constrained_intra=0 / bframes=7 / b_pyramid=2 / b_adapt=2 / b_bias=0 / direct=3 / weightb=1 / open_gop=0 / weightp=2 / keyint=250 / keyint_min=23 / scenecut=40 / intra_refresh=0 / rc_lookahead=50 / rc=crf / mbtree=1 / crf=18.0 / qcomp=0.60 / qpmin=0 / qpmax=69 / qpstep=4 / ip_ratio=1.40 / aq=1:1.00
Default : Да
Forced : Нет

Аудио #1
Идентификатор : 2
Формат : AC-3
Формат/Информация : Audio Coding 3
Расширение режима : CM (complete main)
Идентификатор кодека : A_AC3
Продолжительность : 1 ч. 20 м.
Вид битрейта : Постоянный
Битрейт : 384 Кбит/сек
Каналы : 6 каналов
Расположение каналов : Front: L C R, Side: L R, LFE
Частота : 48,0 КГц
Битовая глубина : 16 бит
Метод сжатия : С потерями
Размер потока : 221 Мбайт (8%)
Язык : Russian
Default : Да
Forced : Нет

Аудио #2
Идентификатор : 3
Формат : AC-3
Формат/Информация : Audio Coding 3
Расширение режима : CM (complete main)
Идентификатор кодека : A_AC3
Продолжительность : 1 ч. 20 м.
Вид битрейта : Постоянный
Битрейт : 384 Кбит/сек
Каналы : 6 каналов
Расположение каналов : Front: L C R, Side: L R, LFE
Частота : 48,0 КГц
Битовая глубина : 16 бит
Метод сжатия : С потерями
Задержка видео : 32 мс.
Размер потока : 221 Мбайт (8%)
Язык : English
Default : Нет
Forced : Нет

Текст
Идентификатор : 4
Формат : UTF-8
Идентификатор кодека : S_TEXT/UTF8
Идентификатор кодека/Информация : UTF-8 Plain Text
Язык : English
Default : Нет
Forced : Нет
Общее
Уникальный идентификатор : 235049942939915394619282730904598734198 (0xB0D4F8EC27D96B34A649667FCBADE576)
Полное имя : I:\Раздачи\Раздачи\720p\Bag.of.Bones.s01.720p.NewStudio_AlexFilm\Bag.of.Bones.s01e02.720p.NewStudio_AlexFilm.mkv
Формат : Matroska
Версия формата : Version 2
Размер файла : 3,47 Гбайт
Продолжительность : 1 ч. 23 м.
Общий поток : 5920 Кбит/сек
Дата кодирования : UTC 2011-12-20 22:43:43
Программа кодирования : mkvmerge v5.1.0 ('And so it goes') built on Nov 28 2011 23:58:28
Библиотека кодирования : libebml v1.2.3 + libmatroska v1.3.0

Видео
Идентификатор : 1
Формат : AVC
Формат/Информация : Advanced Video Codec
Профиль формата : High@L4.1
Параметр CABAC формата : Да
Параметр ReFrames формата : 9 кадров
Идентификатор кодека : V_MPEG4/ISO/AVC
Продолжительность : 1 ч. 23 м.
Битрейт : 5034 Кбит/сек
Ширина : 1280 пикселей
Высота : 720 пикселей
Соотношение сторон : 16:9
Частота кадров : 23,976 кадра/сек
Цветовое пространство : YUV
Субдискретизация насыщенности : 4:2:0
Битовая глубина : 8 бит
Тип развёртки : Прогрессивная
Бит/(Пиксели*Кадры) : 0.228
Размер потока : 2,95 Гбайт (85%)
Библиотека кодирования : x264 core 116 r2074 2641b9e
Настройки программы : cabac=1 / ref=9 / deblock=1:-1:-1 / analyse=0x3:0x113 / me=umh / subme=9 / psy=1 / psy_rd=1.00:0.15 / mixed_ref=1 / me_range=16 / chroma_me=1 / trellis=1 / 8x8dct=1 / cqm=0 / deadzone=21,11 / fast_pskip=1 / chroma_qp_offset=-3 / threads=3 / sliced_threads=0 / nr=0 / decimate=1 / interlaced=0 / bluray_compat=0 / constrained_intra=0 / bframes=7 / b_pyramid=2 / b_adapt=2 / b_bias=0 / direct=3 / weightb=1 / open_gop=0 / weightp=2 / keyint=250 / keyint_min=23 / scenecut=40 / intra_refresh=0 / rc_lookahead=50 / rc=crf / mbtree=1 / crf=18.0 / qcomp=0.60 / qpmin=0 / qpmax=69 / qpstep=4 / ip_ratio=1.40 / aq=1:1.00
Default : Да
Forced : Нет

Аудио #1
Идентификатор : 2
Формат : AC-3
Формат/Информация : Audio Coding 3
Расширение режима : CM (complete main)
Идентификатор кодека : A_AC3
Продолжительность : 1 ч. 23 м.
Вид битрейта : Постоянный
Битрейт : 384 Кбит/сек
Каналы : 6 каналов
Расположение каналов : Front: L C R, Side: L R, LFE
Частота : 48,0 КГц
Битовая глубина : 16 бит
Метод сжатия : С потерями
Задержка видео : 31 мс.
Размер потока : 231 Мбайт (6%)
Язык : English
Default : Нет
Forced : Нет

Аудио #2
Идентификатор : 3
Формат : AC-3
Формат/Информация : Audio Coding 3
Расширение режима : CM (complete main)
Идентификатор кодека : A_AC3
Продолжительность : 1 ч. 23 м.
Вид битрейта : Постоянный
Битрейт : 384 Кбит/сек
Каналы : 6 каналов
Расположение каналов : Front: L C R, Side: L R, LFE
Частота : 48,0 КГц
Битовая глубина : 16 бит
Метод сжатия : С потерями
Размер потока : 231 Мбайт (6%)
Язык : Russian
Default : Да
Forced : Нет

Текст
Идентификатор : 4
Формат : UTF-8
Идентификатор кодека : S_TEXT/UTF8
Идентификатор кодека/Информация : UTF-8 Plain Text
Язык : English
Default : Нет
Forced : Нет

Внимание! Раздача ведётся путём добавления новых серий; при каждом добавлении создётся новый торрент. Чтобы начать докачку новой серии, пользователям необходимо сделать следующее:
(1) остановить скачивание,
(2) удалить старый торрент у себя из клиента (старые серии удалять не надо),
(3) скачать новый торрент и запустить его у себя в клиенте вместо старого, при этом указать клиенту путь в старую папку куда и должно происходить скачивание новых серий.

Ваш клиент при этом должен произвести хеширование (проверку) старой папки (если не производит сам - помогите ему сделать это), и будет докачивать только те серии которых у вас ещё нет. Старые серии при этом не удаляются, а продолжают раздаваться!

Eсли вы уже удалили старые серии, то предотвратить повторную закачку старых серий можно, отжав галочку в соответсвующих местах при запуске нового торрента. По возможности, желательно не удалять старые серии как можно дольше чтобы релизёр не столько продолжал раздавать старые серии, а смог сконцентрироваться на новых.
Добавлена 2 серия!
Сериал окончен.
piratbit.org



Скачать Мешок с костями через торрент https://pic1.kartinco.top/images/2011/yojf5q2az4.jpg Скачать, смотреть онлайн Мешок с костями бесплантно в хорошем качестве Описание: У писателя Майка Нунэна от аневризмы умирает жена Джоанна. После её гибели известный на весь мир автор мистических романов ... 5 10 4
Info! Золотая раздача, скачанное не засчитывается.
Торрент: Зарегистрирован [2011-12-22 21:13] · скачан: 23 раз
Статус: √ проверено
Размер: 6.21 GB
Как cкачать? Как скачать Мешок с костями через торрент | UTorrent

% Раздел Тема Автор DL S | L
Зарубежные сериалы [ 1.68 GB ] Мешок с костями / Bag of Bones / Сезон: 1 / Серии: 1 и 2 [2011 HDTVRip] MVO Messa-fan Скачать
1 | 0


Последний раз редактировалось: Messa-fan (2011-12-22 21:27), всего редактировалось 8 раз(а)

28-11-2019 20:33  

Отключить всю рекламу на сайте

20-12-2011 01:23 Мешок с костями Скачать торрент  

Бред или что то нормальное??piratbit.org



22-12-2011 21:14 Мешок с костями Скачать торрент  

Добавлена 2 серия!
Сериал окончен.
Прошу обратить внимание, у второй части другие тех.данные! (существенно больше битрейт)
Общее
Уникальный идентификатор : 235049942939915394619282730904598734198 (0xB0D4F8EC27D96B34A649667FCBADE576)
Полное имя : I:\Раздачи\Раздачи\720p\Bag.of.Bones.s01.720p.NewStudio_AlexFilm\Bag.of.Bones.s01e02.720p.NewStudio_AlexFilm.mkv
Формат : Matroska
Версия формата : Version 2
Размер файла : 3,47 Гбайт
Продолжительность : 1 ч. 23 м.
Общий поток : 5920 Кбит/сек
Дата кодирования : UTC 2011-12-20 22:43:43
Программа кодирования : mkvmerge v5.1.0 ('And so it goes') built on Nov 28 2011 23:58:28
Библиотека кодирования : libebml v1.2.3 + libmatroska v1.3.0

Видео
Идентификатор : 1
Формат : AVC
Формат/Информация : Advanced Video Codec
Профиль формата : High@L4.1
Параметр CABAC формата : Да
Параметр ReFrames формата : 9 кадров
Идентификатор кодека : V_MPEG4/ISO/AVC
Продолжительность : 1 ч. 23 м.
Битрейт : 5034 Кбит/сек
Ширина : 1280 пикселей
Высота : 720 пикселей
Соотношение сторон : 16:9
Частота кадров : 23,976 кадра/сек
Цветовое пространство : YUV
Субдискретизация насыщенности : 4:2:0
Битовая глубина : 8 бит
Тип развёртки : Прогрессивная
Бит/(Пиксели*Кадры) : 0.228
Размер потока : 2,95 Гбайт (85%)
Библиотека кодирования : x264 core 116 r2074 2641b9e
Настройки программы : cabac=1 / ref=9 / deblock=1:-1:-1 / analyse=0x3:0x113 / me=umh / subme=9 / psy=1 / psy_rd=1.00:0.15 / mixed_ref=1 / me_range=16 / chroma_me=1 / trellis=1 / 8x8dct=1 / cqm=0 / deadzone=21,11 / fast_pskip=1 / chroma_qp_offset=-3 / threads=3 / sliced_threads=0 / nr=0 / decimate=1 / interlaced=0 / bluray_compat=0 / constrained_intra=0 / bframes=7 / b_pyramid=2 / b_adapt=2 / b_bias=0 / direct=3 / weightb=1 / open_gop=0 / weightp=2 / keyint=250 / keyint_min=23 / scenecut=40 / intra_refresh=0 / rc_lookahead=50 / rc=crf / mbtree=1 / crf=18.0 / qcomp=0.60 / qpmin=0 / qpmax=69 / qpstep=4 / ip_ratio=1.40 / aq=1:1.00
Default : Да
Forced : Нет

Аудио #1
Идентификатор : 2
Формат : AC-3
Формат/Информация : Audio Coding 3
Расширение режима : CM (complete main)
Идентификатор кодека : A_AC3
Продолжительность : 1 ч. 23 м.
Вид битрейта : Постоянный
Битрейт : 384 Кбит/сек
Каналы : 6 каналов
Расположение каналов : Front: L C R, Side: L R, LFE
Частота : 48,0 КГц
Битовая глубина : 16 бит
Метод сжатия : С потерями
Задержка видео : 31 мс.
Размер потока : 231 Мбайт (6%)
Язык : English
Default : Нет
Forced : Нет

Аудио #2
Идентификатор : 3
Формат : AC-3
Формат/Информация : Audio Coding 3
Расширение режима : CM (complete main)
Идентификатор кодека : A_AC3
Продолжительность : 1 ч. 23 м.
Вид битрейта : Постоянный
Битрейт : 384 Кбит/сек
Каналы : 6 каналов
Расположение каналов : Front: L C R, Side: L R, LFE
Частота : 48,0 КГц
Битовая глубина : 16 бит
Метод сжатия : С потерями
Размер потока : 231 Мбайт (6%)
Язык : Russian
Default : Да
Forced : Нет

Текст
Идентификатор : 4
Формат : UTF-8
Идентификатор кодека : S_TEXT/UTF8
Идентификатор кодека/Информация : UTF-8 Plain Text
Язык : English
Default : Нет
Forced : Нет
piratbit.org



    Дорогой пользователь! Огромная просьба, поблагодарите релизера, оцените раздачу и оставьте свои комментарий, если Вы скачали Мешок с костями через торрент бесплатно!
    Комментировать посты могут только пользователи прошедшие не сложную регистрацию
    Показать сообщения:    

    Мешок с костями через торрент
    Скачать бесплатно Мешок с костями
    Мешок с костями скачать торрент
    Мешок с костями смотреть онлайн
    Cкачать фильм Мешок с костями бесплатно
    Мешок с костями скачать торрент в хорошем качестве
    Мешок с костями смотреть онлайн бесплатно в хорошем качестве


    Вы не можете начинать темы
    Вы не можете отвечать на сообщения
    Вы не можете редактировать свои сообщения
    Вы не можете удалять свои сообщения
    Вы не можете голосовать в опросах
    Вы не можете прикреплять файлы к сообщениям
    Вы можете скачивать файлы