Marvel's Avengers Deluxe Edition (супер цена) 159р. Внимание количество ограничено!!!

2 сезон

iTunes

iTunes

1

iTunes

iTunes

iTunes

WEBRip

iTunes

30
pack

Новость дня

ВАЖНО

!!Акция!!

Alien_RageХит недели

RePack

Horizon Zero Dawn

ИГРА 18+

pack

RePack

jed

!!Акция!!

Alien_Rage

RePack

fifa19

RePack

Assassins Creed: Odyssey

RePack

NEED FOR SPEED™ PAYBACK

4 сезон

9 сезон

Бесстыжие 9 сезон

Все сериалы

все сериалы на PB.wtf

RePack

FAR CRY 5
  

Шпана 2 / Аdulthood (Ноэль Кларк / Noel Clarke) [2008 г., Драма, DVDRip] piratbit.org

Шпана 2 через торрент piratbit.org

Размер: 1.37 GB | Добавлен: 8 лет 8 мес. назад | Торрент скачан:23 раза
Скачать  

28-12-2011 13:15 Шпана 2 Скачать торрент  

Шпана 2 / Аdulthood
Год выпуска: 2008
Страна: Великобритания
Жанр: Драма
Продолжительность: 01:35:12
Перевод: Профессиональный (двухголосый)

Режиссер: Ноэль Кларк / Noel Clarke
Продюссер: Джордж Иссак, Дамиан Джонс, Джеймс Биддл
Сценарий: Ноэль Кларк
Премьера в мире: 17 июня 2008

|
В ролях: Ноэль Кларк, Адам Дикон, Скарлет Джонсон, Джейкоб Андерсон, Бен Дрю, Дэнни Дайер, Шаника Уоррен-Мерленд, Ред Мадрелл, Натан Констанс
Описание: После того как Сэм Пил убил Трайфа, его осудили и приговорили к 6 годам тюрьмы, спустя это время он выходит из тюрьмы и пытается наладить свою жизнь: все теже наркотики, разбои, секс но теперь уже страх за свою жизнь, ведь то горе которое он причинил друзьям Трайфа осталось без наказанным и их месть уже близка…
Похожие раздачи: Шпана

Качество: DVDRip
Формат: AVI
Видео кодек: XviD
Аудио кодек: AC3
Видео: Xvid 704x384 25.00fps 1 595Kbps
Аудио: Dolby AC3 48000Hz 6ch 448kbps


Format : AVI
Format/Info : Audio Video Interleave
File size : 1.37 GiB
Duration : 1h 35mn
Overall bit rate : 2 053 Kbps
Writing application : VirtualDubMod 1.5.10.2 (build 2542/release)
Writing library : VirtualDubMod build 2542/release

Video
ID : 0
Format : MPEG-4 Visual
Format profile : Advanced Simple@L5
Format settings, BVOP : 1
Format settings, QPel : No
Format settings, GMC : No warppoints
Format settings, Matrix : Default (MPEG)
Muxing mode : Packed bitstream
Codec ID : XVID
Codec ID/Hint : XviD
Duration : 1h 35mn
Bit rate : 1 595 Kbps
Width : 704 pixels
Height : 384 pixels
Display aspect ratio : 16:9
Frame rate : 25.000 fps
Color space : YUV
Chroma subsampling : 4:2:0
Bit depth : 8 bits
Scan type : Progressive
Compression mode : Lossy
Bits/(Pixel*Frame) : 0.236
Stream size : 1.06 GiB (78%)
Writing library : XviD 1.2.0.dev47 (UTC 2006-11-01)

Audio
ID : 1
Format : AC-3
Format/Info : Audio Coding 3
Mode extension : CM (complete main)
Codec ID : 2000
Duration : 1h 35mn
Bit rate mode : Constant
Bit rate : 448 Kbps
Channel(s) : 6 channels
Channel positions : Front: L C R, Side: L R, LFE
Sampling rate : 48.0 KHz
Bit depth : 16 bits
Compression mode : Lossy
Stream size : 305 MiB (22%)
Alignment : Split accross interleaves
Interleave, duration : 40 ms (1.00 video frame)
Interleave, preload duration : 500 ms


piratbit.org



Скачать Шпана 2 через торрент http://i027.radikal.ru/1108/10/bb8352f12fe5.jpg Скачать фильм Шпана 2 через торрент бесплантно в хорошем качестве Описание: После того как Сэм Пил убил Трайфа, его осудили и приговорили к 6 годам тюрьмы, спустя это время он выходит из тюрьмы и пытается ... 10 10 2
Info! Золотая раздача, скачанное не засчитывается.
Торрент: Зарегистрирован [2011-12-28 13:15] · скачан: 23 раз
Статус: √ проверено
Размер: 1.37 GB
Как cкачать? Как скачать Шпана 2 через торрент | qTorrent

28-11-2019 20:33  

Отключить всю рекламу на сайте

07-01-2012 07:07 Шпана 2 Скачать торрент  

дружище раздай уже наконец. 9 дней зареган и ни разу не скачан. в год по чайной ложке.piratbit.org



07-01-2012 07:59 Шпана 2 Скачать торрент  

amok, дружище скорость что приема, что отдачи не айс вообщеpiratbit.org



    Дорогой пользователь! Огромная просьба, поблагодарите релизера, оцените раздачу и оставьте свои комментарий, если Вы скачали Шпана 2 через торрент бесплатно! Внесите свою лепту в развитие PiratBit!
    Комментировать посты могут только пользователи прошедшие не сложную регистрацию
    Показать сообщения:    

    Шпана 2 через торрент
    Скачать бесплатно Шпана 2
    Шпана 2 скачать торрент
    Шпана 2 смотреть онлайн
    Cкачать фильм Шпана 2 бесплатно
    Шпана 2 скачать торрент в хорошем качестве
    Шпана 2 смотреть онлайн бесплатно в хорошем качестве


    Вы не можете начинать темы
    Вы не можете отвечать на сообщения
    Вы не можете редактировать свои сообщения
    Вы не можете удалять свои сообщения
    Вы не можете голосовать в опросах
    Вы не можете прикреплять файлы к сообщениям
    Вы можете скачивать файлы