1 сезон

3 сезон

iTunes

1

iTunes

MVO

iTunes

13

1 сезон

RePack

30

Deluxe

pack

Лицензия

ВАЖНО

ИГРА 18+

pack

RePack

MK11

RePack

jed

RePack

fifa19

RePack

RDR2

RePack

NEED FOR SPEED™ PAYBACK

4 сезон

9 сезон

Бесстыжие 9 сезон

Все сериалы

все сериалы на PB.wtf

RePack

FAR CRY 5

Anonymous, доброй ночи, мы катастрофически не успеваем собрать деньги на оплату серверов, помогите нам пожалуйста 5,10,15р., для нас важна любая помощь . В качестве благодарности мы отключим Вам всю рекламу на сайте (укажите свой ник в строку Ваше имя)!

×
  
Magnet ссылка

Хардбол / Hard Ball (Брайан Роббинс / Brian Robbins) [2001 г., Драма, спорт, DVDRip] piratbit.org

Хардбол через торрент piratbit.org

Размер: 1.46 GB | Добавлен: 9 лет 6 мес. назад | Торрент скачан:0 раз
Скачать  

28-12-2011 13:31 Хардбол Скачать торрент  

Хардбол / Hard Ball«В игре, где все ставки проигрышные, ему нечего терять...»
Год выпуска: 2001
Страна: США, Германия
Жанр: Драма, спорт
Продолжительность: 01:45:55

Режиссер: Брайан Роббинс / Brian Robbins
Продюссер: Херб Гейнс, Кевин МакКормик, Tina Nides
Сценарий: Джон Гэйтинс, Дэниэл Койл

Бюджет: $32 000 000
Премьера в мире: 10 сентября 2001

6.00 (10 897)
В ролях: Киану Ривз, Дайан Лэйн, Джон Хоукс, Брайан Хирн, Джулиан Гриффит, Майкл Б. Джордан, А. Делон Эллис мл., Кристофер Лофтон, Майкл Перкинс, Брайан М. Рид
Описание: Чтобы расплатиться с долгами, мелкий спекулянт, картежник и выпивоха вынужден тренировать бейсбольную команду самую худшую, какую только можно найти в Чикаго. Связанные с этим драматические и комедийные перипетии неожиданно изменяют к лучшему и его собственную жизнь...

Похожие раздачи: Хардбол

Качество: DVDRip
Озвучивание: Профессиональное (полное дублирование)

Формат: AVI
Видео кодек: XviD
Аудио кодек: AC3
Видео: Xvid 720x400 25.00fps 1 522Kbps
Аудио: Dolby AC3 48000Hz 6ch 448kbps



Format : AVI
Format/Info : Audio Video Interleave
File size : 1.46 GiB
Duration : 1h 45mn
Overall bit rate : 1 980 Kbps
Writing application : VirtualDubModRus 1.5.10.2 (build 2542/release)
Writing library : VirtualDubMod build 2542/release

Video
ID : 0
Format : MPEG-4 Visual
Format profile : Advanced Simple@L5
Format settings, BVOP : 1
Format settings, QPel : No
Format settings, GMC : No warppoints
Format settings, Matrix : Custom
Codec ID : XVID
Codec ID/Hint : XviD
Duration : 1h 45mn
Bit rate : 1 522 Kbps
Width : 720 pixels
Height : 400 pixels
Display aspect ratio : 16:9
Frame rate : 25.000 fps
Color space : YUV
Chroma subsampling : 4:2:0
Bit depth : 8 bits
Scan type : Progressive
Compression mode : Lossy
Bits/(Pixel*Frame) : 0.211
Stream size : 1.13 GiB (77%)
Writing library : XviD 63

Audio
ID : 1
Format : AC-3
Format/Info : Audio Coding 3
Mode extension : CM (complete main)
Codec ID : 2000
Duration : 1h 45mn
Bit rate mode : Constant
Bit rate : 448 Kbps
Channel(s) : 6 channels
Channel positions : Front: L C R, Side: L R, LFE
Sampling rate : 48.0 KHz
Bit depth : 16 bits
Compression mode : Lossy
Delay relative to video : 10s 0ms
Stream size : 339 MiB (23%)
Alignment : Split accross interleaves
Interleave, duration : 40 ms (1.00 video frame)
Interleave, preload duration : 500 ms




piratbit.org



Скачать Хардбол через торрент http://i29.fastpic.ru/big/2011/1214/d0/4d29649f529d477fa0442a59d9505ed0.jpg Скачать фильм Хардбол через торрент бесплантно в хорошем качестве Описание: Чтобы расплатиться с долгами, мелкий спекулянт, картежник и выпивоха вынужден тренировать бейсбольную команду самую худшую, какую ... 10 10 1
Info! Золотая раздача, скачанное не засчитывается.
Торрент: Зарегистрирован [2011-12-28 13:31] · скачан: 0 раз
Статус: √ проверено
Размер: 1.46 GB
Как cкачать? Как скачать Хардбол через торрент | UTorrent

28-11-2019 20:33  

Отключить всю рекламу на сайте

11-01-2015 21:37 Хардбол Скачать торрент  

Отличный фильм!piratbit.org



    Дорогой пользователь! Огромная просьба, поблагодарите релизера, оцените раздачу и оставьте свои комментарий, если Вы скачали Хардбол через торрент бесплатно! Внесите свою лепту в развитие PiratBit!
    Комментировать посты могут только пользователи прошедшие не сложную регистрацию
    Показать сообщения:    

    Хардбол через торрент
    Скачать бесплатно Хардбол
    Хардбол скачать торрент
    Хардбол смотреть онлайн
    Cкачать фильм Хардбол бесплатно
    Хардбол скачать торрент в хорошем качестве
    Хардбол смотреть онлайн бесплатно в хорошем качестве


    Вы не можете начинать темы
    Вы не можете отвечать на сообщения
    Вы не можете редактировать свои сообщения
    Вы не можете удалять свои сообщения
    Вы не можете голосовать в опросах
    Вы не можете прикреплять файлы к сообщениям
    Вы можете скачивать файлы