Anonymous, добрый день, присоединяйтесь к нам в Telegram!, здесь всегда актуальный адрес сайта, оперативная поддержка и многое другое!

>

5.6

iTunes

7.4

iTunes

5.7

MVO

1

7.7

1 сезон

6.8

iTunes

7.3

1 сезон

13

6.7

1 сезон

8.3

RePack

30

ULTIMATE

pack

9.9

Лицензия

ВАЖНО

ИГРА 18+

pack

7.3

RePack

MK11

7.7

RePack

jed

7.8

RePack

fifa19

8.5

RePack

RDR2

RePack

NEED FOR SPEED™ PAYBACK

4 сезон

9 сезон

Бесстыжие 9 сезон

Все сериалы

все сериалы на PB.wtf

RePack

FAR CRY 5

Anonymous, добрый день, мы катастрофически не успеваем собрать деньги на оплату серверов, помогите нам пожалуйста 5,10,15р., для нас важна любая помощь . В качестве благодарности мы отключим Вам всю рекламу на сайте (укажите свой ник в строку Ваше имя)!

×
  
Magnet ссылка

Мешок С Костями / Bag Of Bones / 1 Сезон: / Серии 1-2 (2) (Мик Гаррис) [2011 г, Триллер, HDTV 720р] (DD 5.1 Кубик в Кубе) piratbit.org

Мешок С Костями через торрент piratbit.org

Размер: 6.05 GB | Добавлен: 9 лет 9 мес. назад | Торрент скачан:35 раз
Смотреть онлайн Мешок С Костями | Скачать    Ребята, помогите собрать деньги на оплату серверов!!!

03-01-2012 17:00 Мешок С Костями Скачать торрент  

Мешок С КостямиBag Of Bones___________________ ___________________Год выпуска • 2011
Страна • США
Жанр • Триллер

Режиссёр • Мик Гаррис
В ролях • Пирс Броснан, Мелисса Джордж, Мэтт Фрюэр, Джейсон Пристли, Аннабет Гиш, Аника Нони Роуз, Уильям Шэллерт, Кэйтлин Кармайкл, Гари Леверт, и др
.
Описание • У писателя Майкла Нунена умирает жена Джоанна. После ее гибели известный на весь мир автор мистических романов намеренно делает из себя затворника, отгородившись от остального мира. Но проходит несколько лет, и по стечению обстоятельств писатель встречает девушку Мэтти, в которую влюбляется, хотя и не желает признаваться в этом самому себе. Его жизнь начинается с чистого листа. После признания в своих чувствах новоявленной невесте Майклу придется столкнуться с не менее жутким кошмаром, чем смерть собственной жены. Мистические приключения; реалистичные жуткие сны; жестокие родственники Мэтти, пытающиеся отправить писателя на тот свет, и конечно же появляющаяся время от времени Джоанна… Ее призрак все время пытается уберечь Майкла от неверного шага…
ПереводАнастасия Киселенко
Озвучание • Профессиональный (двухголосый, закадровый) Студия « Кубик в Кубе »

Автор РипаORENJI
Релиз подготовилGater
Работа со звукомGater


Продолжительность: 2х ~ 1,5 Часа.
Качество: HDTV 720р
Формат: MKV
Видео: MPEG-4 AVC / 3839 kbps / 1280:720p / 23.976 fps / 16:9 / High Level 4.1
Аудио:
Русский / Dolby Digital 5.1 / 48 kHz / 384 kbps
English / Dolby Digital 5.1 / 48 kHz / 384 kbps
Субтитры:
Русские / English

[font="georgia"] [URL=https://piratbit.top/goo.php?URL=https://piratbit.top/goo.php?url=http://multi-up.com/614575]SAMPLE


Общее
Уникальный идентификатор : 237506778629771134050573950429690216475 (0xB2AE24462D166DFC9B153C559CA6401B)
Полное имя : E:\Bag Of Bones HDTV 720p (Кубик в Кубе)\Bag Of Bones Part 1 HDTV 720p.mkv
Формат : Matroska
Размер файла : 2,60 Гбайт
Продолжительность : 1 ч. 19 м.
Общий поток : 4694 Кбит/сек
Дата кодирования : UTC 2011-12-17 17:35:11
Программа кодирования : mkvmerge v4.0.0 ('The Stars were mine') сборка от Jun 6 2010 16:18:42
Библиотека кодирования : libebml v1.0.0 + libmatroska v1.0.0
Видео
Идентификатор : 1
Формат : AVC
Формат/Информация : Advanced Video Codec
Профиль формата : High@L4.1
Параметр CABAC формата : Да
Параметр ReFrames формата : 5 кадры
Идентификатор кодека : V_MPEG4/ISO/AVC
Продолжительность : 1 ч. 19 м.
Битрейт : 3832 Кбит/сек
Ширина : 1280 пикс.
Высота : 720 пикс.
Соотношение сторон : 16:9
Частота кадров : 23,976 кадр/сек
Цветовое пространство : YUV
Подвыборка цветности : 4:2:0
Битовая глубина : 8 бит
Тип развёртки : Прогрессивная
Бит/(Пиксели*Кадры) : 0.173
Размер потока : 2,12 Гбайт (82%)
Библиотека кодирования : x264 core 119 r2106M 07efeb4
Настройки программы : cabac=1 / ref=5 / deblock=1:0:0 / analyse=0x3:0x113 / me=umh / subme=8 / psy=1 / psy_rd=1.00:0.00 / mixed_ref=1 / me_range=16 / chroma_me=1 / trellis=1 / 8x8dct=1 / cqm=0 / deadzone=21,11 / fast_pskip=1 / chroma_qp_offset=-2 / threads=12 / sliced_threads=0 / nr=0 / decimate=1 / interlaced=0 / bluray_compat=0 / constrained_intra=0 / bframes=3 / b_pyramid=2 / b_adapt=2 / b_bias=0 / direct=3 / weightb=1 / open_gop=0 / weightp=2 / keyint=250 / keyint_min=23 / scenecut=40 / intra_refresh=0 / rc_lookahead=50 / rc=crf / mbtree=1 / crf=18.0 / qcomp=0.60 / qpmin=0 / qpmax=69 / qpstep=4 / ip_ratio=1.40 / aq=1:1.00
Язык : English
Аудио #1
Идентификатор : 2
Формат : AC-3
Формат/Информация : Audio Coding 3
Расширение режима : CM (complete main)
Идентификатор кодека : A_AC3
Продолжительность : 1 ч. 19 м.
Вид битрейта : Постоянный
Битрейт : 384 Кбит/сек
Канал(ы) : 6 канала(ов)
Расположение каналов : Front: L C R, Side: L R, LFE
Частота : 48,0 КГц
Битовая глубина : 16 бит
Метод сжатия : С потерями
Размер потока : 218 Мбайт (8%)
Язык : Russian
Аудио #2
Идентификатор : 3
Формат : AC-3
Формат/Информация : Audio Coding 3
Расширение режима : CM (complete main)
Идентификатор кодека : A_AC3
Продолжительность : 1 ч. 19 м.
Вид битрейта : Постоянный
Битрейт : 384 Кбит/сек
Канал(ы) : 6 канала(ов)
Расположение каналов : Front: L C R, Side: L R, LFE
Частота : 48,0 КГц
Битовая глубина : 16 бит
Метод сжатия : С потерями
Размер потока : 218 Мбайт (8%)
Язык : English
Текст #1
Идентификатор : 4
Формат : UTF-8
Идентификатор кодека : S_TEXT/UTF8
Идентификатор кодека/Информация : UTF-8 Plain Text
Язык : Russian
Текст #2
Идентификатор : 5
Формат : UTF-8
Идентификатор кодека : S_TEXT/UTF8
Идентификатор кодека/Информация : UTF-8 Plain Text
Язык : English
Внимание! Раздача ведётся путём добавления новых серий; при каждом добавлении создётся новый торрент. Чтобы начать докачку новой серии, пользователям необходимо сделать следующее: (1) остановить скачивание, (2) удалить старый торрент у себя из клиента (старые серии удалять не надо), (3) скачать новый торрент и запустить его у себя в клиенте вместо старого, при этом указать клиенту путь в старую папку куда и должно происходить скачивание новых серий.
Ваш клиент при этом должен произвести хеширование (проверку) старой папки (если не производит сам - помогите ему сделать это), и будет докачивать только те серии которых у вас ещё нет. Старые серии при этом не удаляются, а продолжают раздаваться!
Eсли вы уже удалили старые серии, то предотвратить повторную закачку старых серий можно, отжав галочку в соответсвующих местах при запуске нового торрента.
piratbit.org



Скачать Мешок С Костями через торрент http://i28.fastpic.ru/big/2011/1218/27/8bc01a9f1dc56e94158bcedb657e5827.jpeg Скачать, смотреть онлайн Мешок С Костями бесплантно в хорошем качестве Описание • У писателя Майкла Нунена умирает жена Джоанна. После ее гибели известный на весь мир автор мистических романов намеренно делает ... 10 10 1
Info! Золотая раздача, скачанное не засчитывается.
Торрент: Зарегистрирован [2012-01-03 17:00] · скачан: 35 раз
Статус: √ проверено
Размер: 6.05 GB
Как cкачать? Как скачать Мешок С Костями через торрент | UTorrent

% Раздел Тема Автор DL S | L
Зарубежные сериалы [ 7.01 GB ] Мешок с костями / Stephen King: Bag of bones / Сезон 1 / Серии 1-2 из 2 [2011 WEB-DL 720p] DUB+MVO+DVO+2xAVO bober100 Скачать
1 | 0
Зарубежные сериалы [ 1.56 GB ] Мешок с костями / Bag of Bones / Сезон: 1 / Серии: 1-2 [2011 WEB-DLRip-AVC] Dub dexter lex Скачать
1 | 0
Зарубежные сериалы [ 1.45 GB ] Мешок с костями / Bag of Bones / Сезон: 1 / Серии: 1-2 [2011 WEB-DLRip] Dub dexter lex Скачать
1 | 0
Зарубежные сериалы [ 1.76 GB ] Мешок с костями / Bag of Bones / Сезон: 1 / Серии: 1-2 [2011 WEB-DLRip] DUB wekotila Скачать
1 | 0
Зарубежные сериалы [ 6.21 GB ] Мешок с костями / Bag of Bones / Сезон: 1 / Серии: 1 и 2 [2011 HDTV 720p] MVO Messa-fan Скачать
1 | 0
Зарубежные сериалы [ 1.68 GB ] Мешок с костями / Bag of Bones / Сезон: 1 / Серии: 1 и 2 [2011 HDTVRip] MVO Messa-fan Скачать
1 | 0
Зарубежные сериалы [ 1.7 GB ] Мешок с костями / Bag Of Bones / Сезон: 1 / Серии: 2 из 2 [2011 HDTVRip] Cherepp Скачать
1 | 0

28-11-2019 20:33  

Отключить всю рекламу на сайте

03-01-2012 17:20 Мешок С Костями Скачать торрент  

Оцените сериал?piratbit.org



10-07-2015 11:57 Мешок С Костями Скачать торрент  

Две серии это уже сериал?piratbit.org



    Дорогой пользователь! Огромная просьба, поблагодарите релизера, оцените раздачу и оставьте свои комментарий, если Вы скачали Мешок С Костями через торрент бесплатно!
    Комментировать посты могут только пользователи прошедшие не сложную регистрацию
    Показать сообщения:    

    Мешок С Костями через торрент
    Скачать бесплатно Мешок С Костями
    Мешок С Костями скачать торрент
    Мешок С Костями смотреть онлайн
    Cкачать фильм Мешок С Костями бесплатно
    Мешок С Костями скачать торрент в хорошем качестве
    Мешок С Костями смотреть онлайн бесплатно в хорошем качестве


    Вы не можете начинать темы
    Вы не можете отвечать на сообщения
    Вы не можете редактировать свои сообщения
    Вы не можете удалять свои сообщения
    Вы не можете голосовать в опросах
    Вы не можете прикреплять файлы к сообщениям
    Вы можете скачивать файлы