Ссылка на приватное зеркало всего за 1$. Внимание количество ограничено!!!

OK

1+1

iTunes

мы

OK

1

WEB-DLRip

Джокер

Пифагор

Ведьмак / The Witcher сериал

Лицензия

ПШазам

ОК

Оно 2

iTunes

30
pack

Вам бонус

ВАЖНО

!!Акция!!

Alien_RageХит недели

RePack

Resident Evil 21

ИГРА 18+

pack

RePack

jed

!!Акция!!

Alien_Rage

RePack

fifa19

RePack

Assassins Creed: Odyssey

RePack

NEED FOR SPEED™ PAYBACK

4 сезон

9 сезон

Бесстыжие 9 сезон

Все сериалы

все сериалы на PB.wtf

RePack

FAR CRY 5
  

Легенда о Костоломе / Legend of the BoneKnapper Dragon (Джон Пуглиси / John Puglisi) [2010 г., фэнтези, комедия, приключения, семейный, мультфильм, BDRemux, 1080p] MVO (SkyeFilmTV) + DVO (NewStudio + Бяко Рекордс) + VO (zamez) + Original + 3xRus Sub piratbit.org

Легенда о Костоломе через торрент piratbit.org

Размер: 3.35 GB | Добавлен: 7 лет 11 мес. назад | Торрент скачан:151 раз
Скачать  

19-01-2012 10:10 Легенда о Костоломе Скачать торрент  

Легенда о Костоломе / Legend of the BoneKnapper Dragon
Год выпуска: 2010
Страна: DreamWorks Animation, США
Жанр: фэнтези, комедия, приключения, семейный, мультфильм
Продолжительность: 00:16:33
Перевод 1: Любительский (многоголосый закадровый) SkyeFilmTV (по переводу Serimon и Draggy)
Перевод 2: Профессиональный (двухголосый закадровый) NewStudio + Бяко Рекордс
Перевод 3: Любительский (одноголосый закадровый) zamez
Русские субтитры: есть (Serimon и Draggy; FaB0SS; MMManja)
Режиссёр: Джон Пуглиси / John Puglisi;
В ролях: Джей Барушель, Джерард Батлер, Крэйг Фергюсон, Америка Феррера, Джона Хилл, ТиДжей Миллер, Кристофер Минц-Плассе, Кристен Уиг, Джон Ди Маджио, Кевин Майкл Ричардсон;
Сценарий: Aimee Marsh, Johane Matte, Кен Мориссей, Дэвид Моусес Пиментел, Джефф Сноу, Питер Стейнфелд, Крессида Коуэлл (по мотивам книжной серии "Как приручить дракона");
Продюсер: Брюс Сейферт; Исполнительный продюсер: Бонни Арнольд;
Композитор: Джон Пауэлл (музыкальное сопровождение составлено из саундтрека "Как приручить дракона");
Описание фильма: Иккинг и юные Викинги отправляются в путешествие со своим наставником Плевакой, чтобы помочь ему победить своего заклятого врага — легендарного дракона Костолома.

Дополнительная информация: Оригинальная английская дорожка Dolby TrueHD 7.1 была перекодирована без потерь качества в DTS-HD Master Audio 7.1.
Русская дорожка DTS-HD MA с озвучкой от SkyeFilmTV была получена путём наложения чистых голосов на центральный канал. Спасибо SkyeFilmTV за озвучку и предоставленные чистые голоса. Отдельное спасибо jonas93 за наложение чистых голосов.
Качество: BDRemux
Контейнер: MKV
Видео кодек: H.264/AVC
Аудио кодек: DTS, AC3
Видео: MPEG4 Video (H264) 1920x1080 23.976fps 17.5Mbps High@L4.1 BDRemux
Аудио №1: Русский: DTS-HD Master Audio / 7.1 / 24-bit / 5052 Kbps / 48 KHz (DTS Core: 5.1 / 48 kHz / 1509 kbps / 24-bit) |SkyeFilmTV|
Аудио №2: Английский: DTS-HD Master Audio / 7.1 / 24-bit / 4962 Kbps / 48 KHz (DTS Core: 5.1 / 48 kHz / 1509 kbps / 24-bit) |перекодировано с оригинальной дорожки Dolby TrueHD 7.1|
Аудио №3: Русский: Dolby Digital / 5.1 / 640 Kbps / 48 KHz |NewStudio + Бяко Рекордс|
Аудио №4: Русский: Dolby Digital / 5.1 / 448 Kbps / 48 KHz |zamez|
Cубтитры №1: Русские (Serimon, Draggy)
Cубтитры №2: Русские (FaB0SS)
Cубтитры №3: Русские (MMManja)
Cубтитры №4: Украинские (by FaB0SS for hurtom.com)
Cубтитры №5: Английские (Original sub)
Общее
Уникальный идентификатор : 241080388084217548850231612255826261214 (0xB55E64D2CD68B4C18D9907D38BAEB4DE)
Полное имя : C:\Users\Андрей\Videos\Фильмы\Legend of the BoneKnapper Dragon BDRemux Rus Eng.mkv
Формат : Matroska
Версия формата : Version 2
Размер файла : 3,35 Гбайт
Продолжительность : 16 м.
Режим общего битрейта : Переменный
Общий поток : 29,0 Мбит/сек
Название фильма : Легенда о Костоломе / Legend of the BoneKnapper Dragon
Дата кодирования : UTC 2012-01-17 13:17:29
Программа кодирования : mkvmerge v5.2.1 ('A Far Off Place') built on Jan 2 2012 23:21:10
Библиотека кодирования : libebml v1.2.3 + libmatroska v1.3.0
Видео
Идентификатор : 1
Формат : AVC
Формат/Информация : Advanced Video Codec
Профиль формата : High@L4.1
Параметр CABAC формата : Да
Параметр ReFrames формата : 4 кадра
Режим смешивания : Container profile=Unknown@0.0
Идентификатор кодека : V_MPEG4/ISO/AVC
Продолжительность : 16 м.
Вид битрейта : Переменный
Битрейт : 24,1 Мбит/сек
Максимальный битрейт : 36,0 Мбит/сек
Ширина : 1920 пикселей
Высота : 1080 пикселей
Соотношение сторон : 16:9
Частота кадров : 23,976 кадра/сек
Цветовое пространство : YUV
Субдискретизация насыщенности : 4:2:0
Битовая глубина : 8 бит
Тип развёртки : Прогрессивная
Бит/(Пиксели*Кадры) : 0.485
Размер потока : 2,79 Гбайт (83%)
Заголовок : BDRemux
Язык : English
Default : Нет
Forced : Нет
Основные цвета : BT.709-5, BT.1361, IEC 61966-2-4, SMPTE RP177
Характеристики трансфера : BT.709-5, BT.1361
Коэффициенты матрицы : BT.709-5, BT.1361, IEC 61966-2-4 709, SMPTE RP177
Аудио #1
Идентификатор : 2
Формат : DTS
Формат/Информация : Digital Theater Systems
Профиль формата : MA / Core
Идентификатор кодека : A_DTS
Продолжительность : 16 м.
Вид битрейта : Переменный
Битрейт : 1597 Кбит/сек / 1510 Кбит/сек
Каналы : 8 каналов / 6 каналов
Расположение каналов : Front: L C R, Side: L R, Back: L R, LFE / Front: L C R, Side: L R, LFE
Частота : 48,0 КГц
Битовая глубина : 24 бит
Метод сжатия : Без потерь / Lossy
Заголовок : MVO (SkyeFilmTV) DTS-HD MA 7.1 24bit 48KHz
Язык : Russian
Default : Да
Forced : Нет
Аудио #2
Идентификатор : 3
Формат : DTS
Формат/Информация : Digital Theater Systems
Профиль формата : MA / Core
Идентификатор кодека : A_DTS
Продолжительность : 16 м.
Вид битрейта : Переменный
Битрейт : 1597 Кбит/сек / 1510 Кбит/сек
Каналы : 8 каналов / 6 каналов
Расположение каналов : Front: L C R, Side: L R, Back: L R, LFE / Front: L C R, Side: L R, LFE
Частота : 48,0 КГц
Битовая глубина : 24 бит
Метод сжатия : Без потерь / Lossy
Заголовок : English DTS-HD MA 7.1 24bit 48KHz (encode from Dolby TrueHD 7.1)
Язык : English
Default : Нет
Forced : Нет
Аудио #3
Идентификатор : 4
Формат : AC-3
Формат/Информация : Audio Coding 3
Расширение режима : CM (complete main)
Идентификатор кодека : A_AC3
Продолжительность : 16 м.
Вид битрейта : Постоянный
Битрейт : 640 Кбит/сек
Каналы : 6 каналов
Расположение каналов : Front: L C R, Side: L R, LFE
Частота : 48,0 КГц
Битовая глубина : 16 бит
Метод сжатия : С потерями
Размер потока : 75,9 Мбайт (2%)
Заголовок : DVO (NewStudio + Бяко Рекордс) DD 5.1, 48 KHz, 640 Kbps
Язык : Russian
Default : Нет
Forced : Нет
Аудио #4
Идентификатор : 5
Формат : AC-3
Формат/Информация : Audio Coding 3
Расширение режима : CM (complete main)
Идентификатор кодека : A_AC3
Продолжительность : 16 м.
Вид битрейта : Постоянный
Битрейт : 448 Кбит/сек
Каналы : 6 каналов
Расположение каналов : Front: L C R, Side: L R, LFE
Частота : 48,0 КГц
Битовая глубина : 16 бит
Метод сжатия : С потерями
Размер потока : 53,1 Мбайт (2%)
Заголовок : VO (zamez) DD 5.1, 48 KHz, 448 Kbps,
Язык : Russian
Default : Нет
Forced : Нет
Текст #1
Идентификатор : 6
Формат : UTF-8
Идентификатор кодека : S_TEXT/UTF8
Идентификатор кодека/Информация : UTF-8 Plain Text
Заголовок : Serimon, Draggy
Язык : Russian
Default : Да
Forced : Нет
Текст #2
Идентификатор : 7
Формат : UTF-8
Идентификатор кодека : S_TEXT/UTF8
Идентификатор кодека/Информация : UTF-8 Plain Text
Заголовок : FaB0SS
Язык : Russian
Default : Нет
Forced : Нет
Текст #3
Идентификатор : 8
Формат : UTF-8
Идентификатор кодека : S_TEXT/UTF8
Идентификатор кодека/Информация : UTF-8 Plain Text
Заголовок : MMManja
Язык : Russian
Default : Нет
Forced : Нет
Текст #4
Идентификатор : 9
Формат : UTF-8
Идентификатор кодека : S_TEXT/UTF8
Идентификатор кодека/Информация : UTF-8 Plain Text
Заголовок : by FaB0SS for hurtom.com
Язык : Ukrainian
Default : Нет
Forced : Нет
Текст #5
Идентификатор : 10
Формат : UTF-8
Идентификатор кодека : S_TEXT/UTF8
Идентификатор кодека/Информация : UTF-8 Plain Text
Заголовок : Original sub
Язык : English
Default : Нет
Forced : Нет




piratbit.org



Скачать Легенда о Костоломе через торрент http://i30.fastpic.ru/big/2012/0118/e3/79b1c75436f24e5e17039639c3f458e3.png Скачать фильм Легенда о Костоломе через торрент бесплантно в хорошем качестве Описание фильма: Иккинг и юные Викинги отправляются в путешествие со своим наставником Плевакой, чтобы помочь ему победить своего заклятого ... 9.7 10 3
Info! Золотая раздача, скачанное не засчитывается.
Торрент: Зарегистрирован [2012-01-19 10:10] · скачан: 151 раз
Статус: √ проверено
Размер: 3.35 GB
Как cкачать? Как скачать Легенда о Костоломе через торрент | qTorrent

28-11-2019 20:33  

Отключить всю рекламу на сайте

19-01-2012 10:31 Легенда о Костоломе Скачать торрент  

Простите. Есть вопрос. Нахрена поглотили старую раздачу с адекватным размером? Вы серьезно считаете,что качать 3,3Гб вместо 1,2Гб - это лучше? Качество может и лучше,но я просто посмотреть хочу. 16 минутный мультик. Или, в конце концов, сделайте с этого HDRip на 400Mb - это реально с сохранением качества для 16 минут.piratbit.org



19-01-2012 10:59 Легенда о Костоломе Скачать торрент  

LuciusFer писал(а):

Простите. Есть вопрос. Нахрена поглотили старую раздачу с адекватным размером? Вы серьезно считаете,что качать 3,3Гб вместо 1,2Гб - это лучше? Качество может и лучше,но я просто посмотреть хочу. 16 минутный мультик. Или, в конце концов, сделайте с этого HDRip на 400Mb - это реально с сохранением качества для 16 минут.

+100
как минимум - сделайте внешними дорожками тогда звукpiratbit.org



19-01-2012 11:06 Легенда о Костоломе Скачать торрент  

LuciusFer хи братух, если у тебя удалили раздачу, значит на то была какая то причина, хз.piratbit.org



19-01-2012 11:14 Легенда о Костоломе Скачать торрент  

А какие ещё мульты есть из этой серии "Как приручить дракона"?piratbit.org



19-01-2012 12:17 Легенда о Костоломе Скачать торрент  

    Дорогой пользователь! Огромная просьба, поблагодарите релизера, оцените раздачу и оставьте свои комментарий, если Вы скачали Легенда о Костоломе через торрент бесплатно! Внесите свою лепту в развитие PiratBit!
    Комментировать посты могут только пользователи прошедшие не сложную регистрацию
    Показать сообщения:    

    Легенда о Костоломе через торрент
    Скачать бесплатно Легенда о Костоломе
    Легенда о Костоломе скачать торрент
    Легенда о Костоломе смотреть онлайн
    Cкачать фильм Легенда о Костоломе бесплатно
    Легенда о Костоломе скачать торрент в хорошем качестве
    Легенда о Костоломе смотреть онлайн бесплатно в хорошем качестве


    Вы не можете начинать темы
    Вы не можете отвечать на сообщения
    Вы не можете редактировать свои сообщения
    Вы не можете удалять свои сообщения
    Вы не можете голосовать в опросах
    Вы не можете прикреплять файлы к сообщениям
    Вы можете скачивать файлы