Anonymous, добрый вечер, присоединяйтесь к нам в Telegram!, здесь всегда актуальный адрес сайта, оперативная поддержка и многое другое!

>

5.5

iTunes

7.4

iTunes

7.9

iTunes

1

7.7

1 сезон

6.8

iTunes

7.3

1 сезон

13

6.7

1 сезон

8.3

RePack

30

ULTIMATE

pack

9.9

Лицензия

ВАЖНО

ИГРА 18+

pack

7.3

RePack

MK11

7.7

RePack

jed

7.8

RePack

fifa19

8.5

RePack

RDR2

RePack

NEED FOR SPEED™ PAYBACK

4 сезон

9 сезон

Бесстыжие 9 сезон

Все сериалы

все сериалы на PB.wtf

RePack

FAR CRY 5

Anonymous, добрый вечер, мы катастрофически не успеваем собрать деньги на оплату серверов, помогите нам пожалуйста 5,10,15р., для нас важна любая помощь . В качестве благодарности мы отключим Вам всю рекламу на сайте (укажите свой ник в строку Ваше имя)!

×
  
Magnet ссылка

Прослушка / The Wire / Полные 5 сезонов (Джо Чаппелль, Клемент Вирго, Роб Бэйли) [2002-2008 гг., триллер, драма, криминал, детектив, DVDRip][101 cinema] piratbit.org

Прослушка через торрент piratbit.org

Качают: 1 [ 0 KB/s ]
Размер: 29.23 GB | Добавлен: 9 лет 8 мес. назад | Торрент скачан:64 раза
Смотреть онлайн Прослушка | Скачать    Ребята, помогите собрать деньги на оплату серверов!!!

27-01-2012 07:21 Прослушка Скачать торрент  

Прослушка / The Wire / Полные 5 сезонов

Год выпуска: 2002 - 2008
Страна:
Жанр: триллер, драма, криминал, детектив
Продолжительность: 60 серий x 55 минут
В ролях: Доминик Уэст, Джон Доумен, Дирдри Лавджой, Уенделл Пирс, Лэнс Реддик, Соня Сон, Сет Гиллиам, Доменик Ломбардоззи, Кларк Питерс, Андре Ройо

Описание:
Подразделение полицейских в Балтиморе пытается с помощью специальных средств и мероприятий по прослушиванию и скрытой видеосъемке довести до суда расследование преступлений организованных преступных групп, которые занимаются незаконным распространением наркотиков.
Самый популярный в америке сериал про полицейских от создателей "The Sopranos" и "OZ".
Сериал повествует о полицейских расследованиях в Балтиморе. Именно этот сериал, любимый сериал полицейских и гангстеров помог правоохранительным органам разгромить сеть наркоторговцев.
Полицейские источники сообщили, что лидеры преступной группировки вели себя в точности как герои телесериала, в частности, постоянно меняли мобильные телефоны, затрудняя прослушивание. В ходе подготовки операции полицейские широко применяли прослушивание телефонных разговоров гангстеров. В результате были арестованы 12 человек, изъяты 43 кг кокаина, 500.000 долларов наличными, 18 единиц оружия и пять дорогостоящих автомобилей.
Бандиты, оказавшиеся большими поклонниками The Wire, помимо обсуждения своих дел по телефону, говорили и о сюжете очередной серии. Полицейские, прослушивавшие их, тоже любили этот фильм. Если мы пропускали какой-то эпизод, то всегда могли узнать подробности из их бесед, – сообщили стражи порядка.
Криминальная драма, написана, снята и спродюсирована в Балтиморе бывшим полицейским репортером Дэвидом Саймоном.

Внимание в сериале присутствует ненормативная лексика!
Прослушка 1 сезон 1-13(13) / The Wire 1 season 1-13(13)

Год выпуска: 2002
Продолжительность: 13 серий x 60 минут
Перевод: Профессиональный (одноголосый) [Автор: abra13b]
Режиссер: Джо Чаппелль, Клемент Вирго, Роб Бэйли
Продюссер: Карен Л. Торсон, Джордж П. Пелеканус, Шеннон Фогарти
Сценарий: Дэвид Саймон, Дэвид Миллс, Эрик Овермиер
Автор идеи: Дэвид Саймон
В ролях: Доминик Уэст, Джон Доумен, Дирдри Лавджой, Уенделл Пирс, Лэнс Реддик, Соня Сон, Сет Гиллиам, Доменик Ломбардоззи, Кларк Питерс, Андре Ройо
Описание: Итак, место действия сериала – небольшой город Балтимор с населением в 640 тысяч человек, из которых 65% приходится на долю чернокожих. Главные герои первого сезона делятся на две группировки: полиция Балтимора и «семейка» Барксдэйл, под контролем которой находится наркоторговля всей западной части Балтимора. События в первых сериях разворачиваются вокруг племянника главы уголовной шайки – наркодиллера Данджэло Барксдэйла, представшего пред судом за убийство и отпущенного на свободу в связи с тем, что ключевой свидетель меняет показания по делу.
Детектив Джимми Макналти рассказывает этот случай знакомому судье Фелану, а также упоминает, что бандой Эйвона Барксдэйла в полиции никто всерьез не занимается. Именно эта беседа и послужила толчком к началу расследования, в котором приняли участие сотрудники из отдела по борьбе с наркотиками. Это за их судьбами зрители будут напряженно следить все 13 серий первого сезона и сопереживать.
Однако следственная группа хоть и собрана, ее деятельность тормозится, так как местные стражи правопорядка привыкли бороться с преступниками в основном на бумаге, да и определенным деятелям – представителям городской власти – не с руки настоящее расследование дел, связанных с наркоторговлей – ведь за возможную неудачу в борьбе могут ухватиться политические конкуренты – и пиши-пропали выборы.
Попутно перед зрителями во всей «красе» предстает картина уличной жизни Балтимора с развернутой структурой наркобизнеса: от простых наркоманов до продажных полицейских и политиков; повествуется о «нелегкой» жизни главы наркоторговцев – Эйвона Барксдэйла, которому приходится бороться не только с полицейскими, но и с информаторами в своем кругу, а также бандитами, грабящими его драгдилеров. Вот уже много лет Эйвон абсолютно недосягаем для закона, так как всегда избегал появления своих фотографий и любых упоминаний о себе в официальных источниках. При этом ему удалось подмять под себя практически весь Балтимор и обеспечить свое безбедное существование 25-миллионой годовой прибылью. Его ближайшие приспешники: Рузел Белл (Стрингер) – очень умный и хитрый; племянник Данджэло – по уши завяз в деле, однако не утратил до конца некие моральные принципы; Престон Брудус (Боди) – один из наркодилеров; Мурик Леви – адвокат Барксдэйла, «отмазывающий» членов банды от закона; и, наконец, официальная крыша шайки – продажный сенатор Клэйтон Дэвис (Клэй), запоминающийся своей артистичной руганью (Sheeeeeeeeeet!).
С шайкой Эйвана борется, в первую очередь, детектив Джеймс Макналти (Джимми) – хороший сыщик, но абсолютный пофигист, которому наплевать практически на все, в том числе и на субординацию, о чем он впоследствии не раз пожалеет. Его коллеги: детектив Шакима Грэггс (Кима) – из породы бабомужиков, очень предана работе, естественно в ущерб личной жизни (наверное, потому она и стала лесбиянкой); лейтенант Сэдрик Дэниэлс – редкое исключение в рядах полицейских, умный, жесткий и преданный своему делу; детектив Лестер Фримон – на нем, пожалуй, держались все расследования. 13 лет просидевший за письменным столом (результат разногласий с начальником), он с завидным рвением и, что важно, умением подошел к делу и задал всем бандитам жару. Не последнюю роль в сериале играют: сержант Эллис Карвер, офицеры Томас Хаук и Роланд Прижбилевски, детективы Вильям Мореланд и Майкл Сантанджело, помощница прокурора Ронда Перлам (Разрешение на прослушку? Без проблем!), судья Дэниэл Фелан (напомним, это с его подачи завертелась вся заварушка).
Сериал не завоевал бы такой популярности, если бы просто рассказывал о борьбе плохих и хороших парней – картину разбавляют, скажем так, средние люди – и не хорошие, и не плохие, наблюдать за развитием характеров которых – одно удовольствие. Так, сериал просто невозможно представить без такой колоритной личности, как гей Омар Литл – вооружившись шотганом, он робингудствует на улицах Балтимора - грабит наркодилеров. Да что говорить, даже наркоманы в сериале – и те харизматичные. Баблз – наркоман-бомж, зарабатывающий на жизнь всем, что под руку подвернется, в том числе «не брезгует» и помощью полиции. Несмотря на свой социальный статус, он очень умен, честен и, видимо, в силу того же статуса, нигилистичен – не верит ни во что и никому…
Первый сезон заканчивается очень жизненно – кого-то убивают, кого-то садят, а кто-то из бандитов опять отмазывают. Что касается отряда, проводившего расследование по делу шайки Барксдэйла, то его расформировали и разбросали героев по разным отдела и местам.
Качество: DVDRip
Формат: AVI
Видео кодек: XviD
Аудио кодек: MPEG Audio
Видео: 576x432 (4:3), 23.976 fps, XviD Final 1.0.2 (build 36) ~593 kbps avg, 0.10 bit/pixel
Аудио : 48 kHz, MPEG Layer 3, 2 ch, ~192.00 kbps avg
Аудио : 48 kHz, MPEG Layer 3, 2 ch, ~192.00 kbps avg
1 серия: The Target
2 серия: The Detail
3 серия: The Buys
4 серия: Old Cases
5 серия: The Pager
6 серия: The Wire
7 серия: One Arrest
8 серия: Lessons
9 серия: Game Day
10 серия: The Cost
11 серия: The Hunt
12 серия: Cleaning Up
13 серия: Sentencing
Общее
Полное имя : \The Wire [season 1]\The_Wire_s01_e01_DVDRip_RUS_[1001cinema.ru].avi
Формат : AVI
Формат/Информация : Audio Video Interleave
Размер файла : 441 Мбайт
Продолжительность : 1 ч. 2 м.
Общий поток : 992 Кбит/сек
Программа кодирования : VirtualDubMod 1.5.10.2 (build 2540/release)
Библиотека кодирования : VirtualDubMod build 2540/release

Видео
Идентификатор : 0
Формат : MPEG-4 Visual
Профиль формата : Advanced Simple@L5
Параметр BVOP формата : 1
Параметр QPel формата : Нет
Параметр GMC формата : Без точки перехода
Параметр матрицы формата : Default (H.263)
Идентификатор кодека : XVID
Идентификатор кодека/Подсказка : XviD
Продолжительность : 1 ч. 2 м.
Битрейт : 594 Кбит/сек
Ширина : 576 пикселей
Высота : 432 пикселя
Соотношение сторон : 4:3
Частота кадров : 23,976 кадра/сек
Цветовое пространство : YUV
Субдискретизация насыщенности : 4:2:0
Битовая глубина : 8 бит
Тип развёртки : Прогрессивная
Метод сжатия : С потерями
Бит/(Пиксели*Кадры) : 0.100
Размер потока : 264 Мбайт (60%)
Библиотека кодирования : XviD 1.0.2 (UTC 2004-08-29)

Аудио #1
Идентификатор : 1
Формат : MPEG Audio
Версия формата : Version 1
Профиль формата : Layer 3
Идентификатор кодека : 55
Идентификатор кодека/Подсказка : MP3
Продолжительность : 1 ч. 2 м.
Вид битрейта : Постоянный
Битрейт : 192 Кбит/сек
Каналы : 2 канала
Частота : 48,0 КГц
Метод сжатия : С потерями
Размер потока : 85,3 Мбайт (19%)
Выравнивание : Разделение по промежуткам
Продолжительность промежутка : 42 мс. (1,00 видеокадр)
Время предзагрузки промежутка : 500 мс.
Библиотека кодирования : LAME3.92
Настройки программы : -m s -V 4 -q 2 -lowpass 18.7 -b 192

Аудио #2
Идентификатор : 2
Формат : MPEG Audio
Версия формата : Version 1
Профиль формата : Layer 3
Идентификатор кодека : 55
Идентификатор кодека/Подсказка : MP3
Продолжительность : 1 ч. 2 м.
Вид битрейта : Постоянный
Битрейт : 192 Кбит/сек
Каналы : 2 канала
Частота : 48,0 КГц
Метод сжатия : С потерями
Размер потока : 85,3 Мбайт (19%)
Выравнивание : Соединение по промежуткам
Продолжительность промежутка : 42 мс. (1,00 видеокадр)
Время предзагрузки промежутка : 504 мс.
Библиотека кодирования : LAME3.92
Настройки программы : -m s -V 4 -q 2 -lowpass 18.7 -b 192
Прослушка 2 сезон 1-12(12) / The Wire 2 season 1-12(12)

Год выпуска: 2003
Продолжительность: 12 серий x 55 минут
Перевод: Профессиональный (одноголосый) [Автор: abra13b]
Режиссер: Джо Чаппелль, Клемент Вирго, Роб Бэйли
Продюссер: Карен Л. Торсон, Джордж П. Пелеканус, Шеннон Фогарти
Сценарий: Дэвид Саймон, Дэвид Миллс, Эрик Овермиер
Автор идеи: Дэвид Саймон
В ролях: Доминик Уэст, Джон Доумен, Дирдри Лавджой, Уенделл Пирс, Лэнс Реддик, Соня Сон, Сет Гиллиам, Доменик Ломбардоззи, Кларк Питерс, Андре Ройо
Описание: Действие второго сезона начинается через год после приснопамятных событий по поимке шайки наркоторговцев. В новом сезоне тем же героям придется раскрывать «мутное» преступление в порту: там обнаружили страшный «груз» - контейнер с тринадцатью девушками из Восточной Европы. Все девушки были мертвыми.
Черные наркоторговцы отходят на бэкстэйдж, однако не раз еще будут проскальзывать по сюжету – зритель будет иметь возможность познакомиться с заправилами наркотрафика поближе. Да и Макналти считает долгом чести вывести наркоторговцев на чистую воду, и не раз будет гнуть свою линию, несмотря на требование начальства уделить внимание другим делам.
Многие персонажи даже не встречались в первом сезоне. Впрочем, главными теперь являются другие герои: Франк Соботка – рубаха-парень, глава профсоюза, предан делу и рабочим порта, но по совместительству контролирует поток наркотиков, оружия и прочих запретных удовольствий, перевозимых через порт. Вместе с Фрэнком обделывают делишки его немного чокнутый сын Зиги, племянник Ник, рабочий Томас Пакуса по кличке Лошадиная морда, Грек – глава законспирированной конторы, занимающейся контрабандой наркотиков и др.
К команде Джимми присоединяются новые помощники – офицер Беатрис Руззел, которая и обнаружила злополучный контейнер и потому активно помогает в расследовании, детективы Вернон Холи и Эдвард Норис, играющий, кстати, самого себя – офицера полиции с двадцатилетним стажем работы....
Качество: DVDRip
Формат: AVI
Видео кодек: XviD
Аудио кодек: MPEG Audio/AC 3
Видео: 576x432 (4:3), 23.976 fps, XviD Final 1.0.3 (build 37) ~636 kbps avg, 0.11 bit/pixel
Аудио : 48 kHz, MPEG Layer 3, 2 ch, ~192.00 kbps avg
Аудио : 48 kHz, AC3 Dolby Digital, 2/0 (L,R) Surround Encoded ch, ~192 kbps
1 серия: Ebb Tide
2 серия: Collateral Damage
3 серия: Hot Shots
4 серия: Hard Cases
5 серия: Undertow
6 серия: All Prologue
7 серия: Backwash
8 серия: Duck and Cover
9 серия: Stray Rounds
10 серия: Storm Warnings
11 серия: Bad Dreams
12 серия: Port in a Storm
Общее
Полное имя : \Прослушка\2 season\The_Wire_s02_e01_DVDRip_RUS_[1001cinema.ru].avi
Формат : AVI
Формат/Информация : Audio Video Interleave
Размер файла : 434 Мбайт
Продолжительность : 58 м.
Общий поток : 1035 Кбит/сек
Программа кодирования : VirtualDubModRus 1.5.10.2 (build 2540/release)
Библиотека кодирования : VirtualDubMod build 2540/release

Видео
Идентификатор : 0
Формат : MPEG-4 Visual
Профиль формата : Advanced Simple@L5
Параметр BVOP формата : 1
Параметр QPel формата : Нет
Параметр GMC формата : Без точки перехода
Параметр матрицы формата : Выборочная
Идентификатор кодека : XVID
Идентификатор кодека/Подсказка : XviD
Продолжительность : 58 м.
Битрейт : 637 Кбит/сек
Ширина : 576 пикселей
Высота : 432 пикселя
Соотношение сторон : 4:3
Частота кадров : 23,976 кадра/сек
Цветовое пространство : YUV
Субдискретизация насыщенности : 4:2:0
Битовая глубина : 8 бит
Тип развёртки : Прогрессивная
Метод сжатия : С потерями
Бит/(Пиксели*Кадры) : 0.107
Размер потока : 267 Мбайт (62%)
Библиотека кодирования : XviD 1.0.3 (UTC 2004-12-20)

Аудио #1
Идентификатор : 1
Формат : MPEG Audio
Версия формата : Version 1
Профиль формата : Layer 3
Идентификатор кодека : 55
Идентификатор кодека/Подсказка : MP3
Продолжительность : 58 м.
Вид битрейта : Постоянный
Битрейт : 192 Кбит/сек
Каналы : 2 канала
Частота : 48,0 КГц
Метод сжатия : С потерями
Размер потока : 80,5 Мбайт (19%)
Выравнивание : Соединение по промежуткам
Продолжительность промежутка : 42 мс. (1,00 видеокадр)
Время предзагрузки промежутка : 504 мс.
Библиотека кодирования : LAME3.92
Настройки программы : -m s -V 4 -q 2 -lowpass 18.7 -b 192
Язык : English

Аудио #2
Идентификатор : 2
Формат : AC-3
Формат/Информация : Audio Coding 3
Профиль формата : Dolby Digital
Расширение режима : CM (complete main)
Идентификатор кодека : 2000
Продолжительность : 58 м.
Вид битрейта : Постоянный
Битрейт : 192 Кбит/сек
Каналы : 2 канала
Расположение каналов : Front: L R
Частота : 48,0 КГц
Битовая глубина : 16 бит
Метод сжатия : С потерями
Размер потока : 80,5 Мбайт (19%)
Выравнивание : Разделение по промежуткам
Продолжительность промежутка : 42 мс. (1,00 видеокадр)
Время предзагрузки промежутка : 500 мс.
Прослушка 3 сезон 1-12(12) / The Wire 3 season 1-12(12)

Год выпуска: 2004
Продолжительность: 12 серий x 55 минут
Перевод: Профессиональный (одноголосый) [Автор: abra13b]
Режиссер: Джо Чаппелль, Клемент Вирго, Роб Бэйли
Продюссер: Карен Л. Торсон, Джордж П. Пелеканус, Шеннон Фогарти
Сценарий: Дэвид Саймон, Дэвид Миллс, Эрик Овермиер
Автор идеи: Дэвид Саймон
В ролях: Доминик Уэст, Джон Доумен, Дирдри Лавджой, Уенделл Пирс, Лэнс Реддик, Соня Сон, Сет Гиллиам, Доменик Ломбардоззи, Кларк Питерс, Андре Ройо
Описание: Основу третьего сезона составляет история майора полиции Говарда Колвина, который, по сути, предложил легализовать наркотики в Балтиморе, согнав наркодилеров в резервации, где их не будет трогать полиция – якобы так, по мнению майора, наркотрафик побудет под колпаком. Все понимают абсурдность такого предложения, однако мало что могут сделать. Джимми Макналти начинает спиваться. И даже случайный секс с незнакомками на парковке его уже больше не привлекает…
Попутно развивается вторая сюжетная линия, начатая в первом сезоне – Барксдэйл выходит из тюрьмы, а Белл хочет с помощью ворованных денег войти в легальный бизнес. При этом в игру вступают высшие силы – политики: советник Томас Каркетти, желающий баллотироваться на пост мэра Балтимора, действующий мэр города Кларенс Ройс, неспособный на наведение порядка в городе, зато умеющий подтасовывать статистику.
В третьем сезоне также начинает формироваться преступная группировка, которой предстоит сыграть ключевую роль в последующих сезонах – Марло Станфиелд, Крис Партлоу – убийца, Монк и др.
Качество: DVDRip
Формат: AVI
Видео кодек: XviD
Аудио кодек: MPEG Audio
Видео: 512x384 (4:3), 23.976 fps, XviD MPEG-4 ~678 kbps avg, 0.14 bit/pixel
Аудио : 48 kHz, MPEG Layer 3, 2 ch, ~192.00 kbps avg
Аудио : 48 kHz, MPEG Layer 3, 2 ch, ~142.62 kbps avg
1 серия: Time After Time
2 серия: All Due Respect
3 серия: Dead Soldiers
4 серия: Hamsterdam
5 серия: Straight and True
6 серия: Homecoming
7 серия: Back Burners
8 серия: Moral Midgetry
9 серия: Slapstick
10 серия: Reformation
11 серия: Middle Ground
12 серия: Mission Accomplished
Общее
Полное имя : \Прослушка\3 season\The_Wire_s03_e01_DVDRip_RUS_[1001cinema.ru].avi
Формат : AVI
Формат/Информация : Audio Video Interleave
Размер файла : 433 Мбайт
Продолжительность : 58 м.
Режим общего битрейта : Переменный
Общий поток : 1032 Кбит/сек
Программа кодирования : VirtualDubModRus 1.5.10.2 (build 2540/release)
Библиотека кодирования : VirtualDubMod build 2540/release

Видео
Идентификатор : 0
Формат : MPEG-4 Visual
Профиль формата : Advanced Simple@L5
Параметр BVOP формата : 1
Параметр QPel формата : Нет
Параметр GMC формата : Без точки перехода
Параметр матрицы формата : Default (MPEG)
Режим смешивания : Сжатый битовый поток
Идентификатор кодека : XVID
Идентификатор кодека/Подсказка : XviD
Продолжительность : 58 м.
Битрейт : 680 Кбит/сек
Ширина : 512 пикселей
Высота : 384 пикселя
Соотношение сторон : 4:3
Частота кадров : 23,976 кадра/сек
Цветовое пространство : YUV
Субдискретизация насыщенности : 4:2:0
Битовая глубина : 8 бит
Тип развёртки : Прогрессивная
Метод сжатия : С потерями
Бит/(Пиксели*Кадры) : 0.144
Размер потока : 285 Мбайт (66%)
Библиотека кодирования : XviD 1.1.0 (UTC 2005-11-22)

Аудио #1
Идентификатор : 1
Формат : MPEG Audio
Версия формата : Version 1
Профиль формата : Layer 3
Идентификатор кодека : 55
Идентификатор кодека/Подсказка : MP3
Продолжительность : 58 м.
Вид битрейта : Постоянный
Битрейт : 192 Кбит/сек
Каналы : 2 канала
Частота : 48,0 КГц
Метод сжатия : С потерями
Размер потока : 80,5 Мбайт (19%)
Выравнивание : Соединение по промежуткам
Продолжительность промежутка : 42 мс. (1,00 видеокадр)
Время предзагрузки промежутка : 504 мс.
Библиотека кодирования : LAME3.92
Настройки программы : -m s -V 4 -q 2 -lowpass 18.7 -b 192

Аудио #2
Идентификатор : 2
Формат : MPEG Audio
Версия формата : Version 1
Профиль формата : Layer 3
Режим : Joint stereo
Расширение режима : MS Stereo
Идентификатор кодека : 55
Идентификатор кодека/Подсказка : MP3
Продолжительность : 58 м.
Вид битрейта : Переменный
Битрейт : 143 Кбит/сек
Минимальный битрейт : 128 Кбит/сек
Каналы : 2 канала
Частота : 48,0 КГц
Метод сжатия : С потерями
Размер потока : 59,8 Мбайт (14%)
Выравнивание : Соединение по промежуткам
Продолжительность промежутка : 24 мс. (0,58 видеокадр)
Время предзагрузки промежутка : 452 мс.
Библиотека кодирования : LAME3.97b
Настройки программы : -m j -V 2 -q 3 -lowpass 18.6 --vbr-new -b 128
Прослушка 4 сезон 1-13(13) / The Wire 4 season 1-13(13)

Год выпуска: 2006
Продолжительность: 13 серий x 55 минут
Перевод: Профессиональный (двуголосый) [Автор: abra13b]
Режиссер: Джо Чаппелль, Клемент Вирго, Роб Бэйли
Продюссер: Карен Л. Торсон, Джордж П. Пелеканус, Шеннон Фогарти
Сценарий: Дэвид Саймон, Дэвид Миллс, Эрик Овермиер
Автор идеи: Дэвид Саймон
В ролях: Доминик Уэст, Джон Доумен, Дирдри Лавджой, Уенделл Пирс, Лэнс Реддик, Соня Сон, Сет Гиллиам, Доменик Ломбардоззи, Кларк Питерс, Андре Ройо
Описание: Время действия – через год после событий третьего сезона. Поле боя за Влacть и деньги пополняется «свежей кровью» - в новом мире нет места Барксдэйлу и его банде – большая часть рынка захвачена Марло, который расчетливо зачищает территорию, устраняя физически всех конкурентов. Впрочем, его самого пытаются безуспешно поймать Лестер и компания. Джимми Макналти в очередной раз бросает пить, но в качестве главного героя отходит чуть ли не на последний план. На носу праймериз – в самом разгаре выборы мэра.
Однако место действия на этот раз – школа, средние классы (7-8), где в прямом смысле творится беззаконие – никакой дисциплины, низкий уровень преподавания и, как следствие, отсутствие образования у детей на должном уровне. Лишь для итоговых тестов, необходимых для статистки по городу, детей кое-как натаскивают… Впрочем, большинство подростков из неблагополучных семей. Прибавьте к этому драгдилеров на каждом углу – разве у ребят есть выбор?
В школу устраивается на работу офицер полиции Роланд Прижбилевски с тайной целью собрать класс наиболее асоциальных детишек и попробовать сделать из них людей. Ибо то, что творится на улицах Балтимора – это одновременно результат и причина того, что происходит в школе. Вообще же, лейтмотив предпоследнего сезона звучит так – зачем Балтимору и всей Америке заодно такое школьное образование, к которой примешиваются муниципальные выборы? В городе в глубокой ж… яме находится все, что можно – и борьба с преступностью, и школьное образование. Таким образом, создатель сериала Дэвид Саймон жестко высмеял один из основополагающих принципов внутренней бушевской политики. И если сериал ставил пред собою цель показать, насколько плохи для в Америке, то это ему удалось. Заканчивается четвертый сезон на совершенно безысходной ноте, и зритель понимает, что у этого города перспектив нет…
Качество: DVDRip
Формат: AVI
Видео кодек: XviD
Аудио кодек: MPEG Audio
Видео: 512x384 (4:3), 23.976 fps, XviD MPEG-4 ~682 kbps avg, 0.14 bit/pixel
Аудио : 48 kHz, MPEG Layer 3, 2 ch, ~192.00 kbps avg
Аудио : 48 kHz, MPEG Layer 3, 2 ch, ~141.10 kbps avg
1 серия: Boys of Summer
2 серия: Soft Eyes
3 серия: Home Rooms
4 серия: Refugees
5 серия: Alliances
6 серия: Margin of Error
7 серия: Unto Others
8 серия: Corner Boys
9 серия: Know Your Place
10 серия: Misgivings
11 серия: A New Day
12 серия: That's Got His Own
13 серия: Final Grades
Общее
Полное имя : \Прослушка\4 season\The_Wire_s04_e01_DVDRip_2voice_[1001cinema.ru].avi
Формат : AVI
Формат/Информация : Audio Video Interleave
Размер файла : 432 Мбайт
Продолжительность : 58 м.
Режим общего битрейта : Переменный
Общий поток : 1034 Кбит/сек
Программа кодирования : VirtualDubMod 1.5.10.2 (build 2540/release)
Библиотека кодирования : VirtualDubMod build 2540/release

Видео
Идентификатор : 0
Формат : MPEG-4 Visual
Профиль формата : Advanced Simple@L5
Параметр BVOP формата : 1
Параметр QPel формата : Нет
Параметр GMC формата : Без точки перехода
Параметр матрицы формата : Default (MPEG)
Режим смешивания : Сжатый битовый поток
Идентификатор кодека : XVID
Идентификатор кодека/Подсказка : XviD
Продолжительность : 58 м.
Битрейт : 684 Кбит/сек
Ширина : 512 пикселей
Высота : 384 пикселя
Соотношение сторон : 4:3
Частота кадров : 23,976 кадра/сек
Цветовое пространство : YUV
Субдискретизация насыщенности : 4:2:0
Битовая глубина : 8 бит
Тип развёртки : Прогрессивная
Метод сжатия : С потерями
Бит/(Пиксели*Кадры) : 0.145
Размер потока : 286 Мбайт (66%)
Библиотека кодирования : XviD 1.1.2 (UTC 2006-11-01)

Аудио #1
Идентификатор : 1
Формат : MPEG Audio
Версия формата : Version 1
Профиль формата : Layer 3
Идентификатор кодека : 55
Идентификатор кодека/Подсказка : MP3
Продолжительность : 58 м.
Вид битрейта : Постоянный
Битрейт : 192 Кбит/сек
Каналы : 2 канала
Частота : 48,0 КГц
Метод сжатия : С потерями
Размер потока : 80,3 Мбайт (19%)
Выравнивание : Соединение по промежуткам
Продолжительность промежутка : 42 мс. (1,00 видеокадр)
Время предзагрузки промежутка : 504 мс.
Библиотека кодирования : LAME3.92
Настройки программы : -m s -V 4 -q 2 -lowpass 18.7 -b 192

Аудио #2
Идентификатор : 2
Формат : MPEG Audio
Версия формата : Version 1
Профиль формата : Layer 3
Режим : Joint stereo
Расширение режима : MS Stereo
Идентификатор кодека : 55
Идентификатор кодека/Подсказка : MP3
Продолжительность : 58 м.
Вид битрейта : Переменный
Битрейт : 141 Кбит/сек
Минимальный битрейт : 128 Кбит/сек
Каналы : 2 канала
Частота : 48,0 КГц
Метод сжатия : С потерями
Размер потока : 59,0 Мбайт (14%)
Выравнивание : Соединение по промежуткам
Продолжительность промежутка : 24 мс. (0,58 видеокадр)
Время предзагрузки промежутка : 457 мс.
Библиотека кодирования : LAME3.97
Настройки программы : -m j -V 2 -q 3 -lowpass 18.6 --vbr-new -b 128
Прослушка 5 сезон 1-10(10) / The Wire 5 season 1-10(10)

Год выпуска: 2008
Продолжительность: 10 серий x 57 минут
Перевод: Профессиональный (двуголосый) [Автор: abra13b]
Режиссер: Джо Чаппелль, Клемент Вирго, Роб Бэйли
Продюссер: Карен Л. Торсон, Джордж П. Пелеканус, Шеннон Фогарти
Сценарий: Дэвид Саймон, Дэвид Миллс, Эрик Овермиер
Автор идеи: Дэвид Саймон
В ролях: Доминик Уэст, Джон Доумен, Дирдри Лавджой, Уенделл Пирс, Лэнс Реддик, Соня Сон, Сет Гиллиам, Доменик Ломбардоззи, Кларк Питерс, Андре Ройо
Описание: С событий, описанных в прошлом сезоне, проходит ровно 15 месяцев. Полицейский департамент находится в еще большем упадке, чем 4 сезона назад: его финансирование практически приостановлено из-за того, что в школьной программе обнаружилась дыра, в которую «вдруг ухнули» 54 млн. долларов. Вообщем, ездят полицейские на старых машинах, и зарплату получают мизерную. Джимми Макналти снова становится самим собой – пьянствует, развратничает с незнакомками, хорошо выполняет свои обязанности полицейского и высказывает «гениальную» идею – сфабриковать дело серийного маньяка, чтобы общественность-таки обратила внимание на голодающую полицию. Появляется новая сюжетная линия, связанная с газетой «The Baltimore Sun».
В целом чувствуется, что сюжетная линия близка к завершению, что вот-вот грядет развязка. Ощущение от первых серий – тяжелое, а ведь сериал и так не оптимистичный. Хотелось бы хэппи-энда, но, как подчеркивает Саймон, он невозможен. Просматривая серию за серией последний сезон, зрители понимают – а ведь ничего-то и не изменилось за все эти годы: на место старых полицейских, бандитов и продажных политиков приходят новые и все идет по кругу. Финальная сцена полна пронзительной безысходности: Дикуэн загоняет себе иглу в вену и зрители понимают. Что вот он, новый Баблз, и что таких баблзов будет еще много…
9 марта 2008 вышла свет увидела заключительная серия пятого сезона – мощная, красивая, грустная. По словам Дэвида Саймона, продолжения больше не будет. Впрочем, оно и не нужно.
Качество: DVDRip
Формат: AVI
Видео кодек: XviD
Аудио кодек: MPEG Audio/AC 3
Видео: 512x384 (4:3), 23.976 fps, XviD build 46 ~1214 kbps avg, 0.26 bit/pixel
Аудио : 48 kHz, MPEG Layer 3, 2 ch, ~192.00 kbps avg
Аудио : 48 kHz, AC3 Dolby Digital, 3/2 (L,C,R,l,r) + LFE ch, ~448 kbps
1 серия: More with Less
2 серия: Unconfirmed Reports
3 серия: Not for Attribution
4 серия: Transitions
5 серия: React Quotes
6 серия: The Dickensian Aspect
7 серия: Took
8 серия: Clarifications
9 серия: Late Editions
10 серия: -30-
Общее
Полное имя : \Прослушка\5 season\The_Wire_s05_e01_DVDRip_2voice_[1001cinema.ru].avi
Формат : AVI
Формат/Информация : Audio Video Interleave
Размер файла : 784 Мбайт
Продолжительность : 58 м.
Общий поток : 1869 Кбит/сек
Программа кодирования : VirtualDubMod 1.5.10.2 (build 2540/release)
Библиотека кодирования : VirtualDubMod build 2540/release

Видео
Идентификатор : 0
Формат : MPEG-4 Visual
Профиль формата : Advanced Simple@L5
Параметр BVOP формата : 2
Параметр QPel формата : Нет
Параметр GMC формата : Без точки перехода
Параметр матрицы формата : Default (H.263)
Идентификатор кодека : XVID
Идентификатор кодека/Подсказка : XviD
Продолжительность : 58 м.
Битрейт : 1215 Кбит/сек
Ширина : 512 пикселей
Высота : 384 пикселя
Соотношение сторон : 4:3
Частота кадров : 23,976 кадра/сек
Цветовое пространство : YUV
Субдискретизация насыщенности : 4:2:0
Битовая глубина : 8 бит
Тип развёртки : Прогрессивная
Метод сжатия : С потерями
Бит/(Пиксели*Кадры) : 0.258
Размер потока : 510 Мбайт (65%)
Библиотека кодирования : XviD 1.1.2 (UTC 2006-11-01)

Аудио #1
Идентификатор : 1
Формат : MPEG Audio
Версия формата : Version 1
Профиль формата : Layer 3
Идентификатор кодека : 55
Идентификатор кодека/Подсказка : MP3
Продолжительность : 58 м.
Вид битрейта : Постоянный
Битрейт : 192 Кбит/сек
Каналы : 2 канала
Частота : 48,0 КГц
Метод сжатия : С потерями
Размер потока : 80,6 Мбайт (10%)
Выравнивание : Соединение по промежуткам
Продолжительность промежутка : 42 мс. (1,00 видеокадр)
Время предзагрузки промежутка : 504 мс.
Библиотека кодирования : LAME3.92
Настройки программы : -m s -V 4 -q 2 -lowpass 18.7 -b 192

Аудио #2
Идентификатор : 2
Формат : AC-3
Формат/Информация : Audio Coding 3
Расширение режима : CM (complete main)
Идентификатор кодека : 2000
Продолжительность : 58 м.
Вид битрейта : Постоянный
Битрейт : 448 Кбит/сек
Каналы : 6 каналов
Расположение каналов : Front: L C R, Side: L R, LFE
Частота : 48,0 КГц
Битовая глубина : 16 бит
Метод сжатия : С потерями
Размер потока : 188 Мбайт (24%)
Выравнивание : Разделение по промежуткам
Продолжительность промежутка : 42 мс. (1,00 видеокадр)
Время предзагрузки промежутка : 500 мс.
- Персонаж Сержанта Джея Лэндсмена базируется на настоящем сержанте Балтиморской Полиции.
- Сам Джей Лэндсмен даже проходил прослушивание на эту роль, но в итоге сыграл Лейтенанта Дэниса Мэлло в третьем сезоне.
- Многие эпизодические персонажи были сыграны настоящими офицерами полиции, политиками и бывшими преступниками.
- Лэнс Реддик исполнивший роль Седрика Дэниелса, пробовался на роль Банка Морланда и Бабблса.
- Шрамы на лицах актёров Майкла К. Уильямса и Джэми Гектора являются настоящими.
- Сериал является любимым сериалом Барака Обамы.

IMDB:Ratings: 9.6/10 from 50,608 users

piratbit.org



Скачать Прослушка через торрент https://pic1.kartinco.top/images/2011/wsp5xqsdvs.jpg Скачать, смотреть онлайн Прослушка бесплантно в хорошем качестве Описание:Подразделение полицейских в Балтиморе пытается с помощью специальных средств и мероприятий по прослушиванию и скрытой видеосъемке ... 8.9 10 8
Info! Золотая раздача, скачанное не засчитывается.
Торрент: Зарегистрирован [2012-01-30 20:32] · скачан: 64 раз
Статус: √ проверено
Размер: 29.23 GB
Как cкачать? Как скачать Прослушка через торрент | UTorrent



Последний раз редактировалось: 0xiDESK (2012-01-30 20:42), всего редактировалось 4 раз(а)

28-11-2019 20:33  

Отключить всю рекламу на сайте

27-01-2012 07:24 Прослушка Скачать торрент  

Если кому понравится добавлю следующие сезоны в эту же темуpiratbit.org



27-01-2012 08:16 Прослушка Скачать торрент  

0xiDESK писал(а):

Если кому понравится добавлю следующие сезоны в эту же тему

Конечно добавляй! Там 5 сезонов кажись... Почитал коменты на кинопоиске, впечатлило! Качаю и помогу с раздачей, спасибо!piratbit.org



27-01-2012 08:26 Прослушка Скачать торрент  

AMD
ок, будет время, оформлю и добавлю остальные=)
29-30 добавлю)))piratbit.org



28-01-2012 18:48 Прослушка Скачать торрент  

0xiDESK писал(а):

AMD
ок, будет время, оформлю и добавлю остальные=)
29-30 добавлю)))

Да не горит, собственно, я ещё эти не все посмотрел, всё нет когда. Но первые пару довольно таки классные! Ещё раз спасибо, раздаю по 10ч. в сутки, как и обещал. piratbit.org



28-01-2012 19:22 Прослушка Скачать торрент  

0xiDESK
а будет ли смысл? ведь насколько я знаю 1001cinema распались не успев закончить озвучку сериала (((
А, выкладывайте сериал того стоитpiratbit.org



30-01-2012 21:04 Прослушка Скачать торрент  

Добавлены 2-5 сезоны!
Обновите торрент-файл!
Приятного просмотра!
Спасибо!
piratbit.org



01-02-2012 15:46 Прослушка Скачать торрент  

Спасибо за сериал, рейтинг у него шикарный, посмотрим.piratbit.org



04-02-2014 22:34 Прослушка Скачать торрент  

сид вернисьpiratbit.org



29-04-2015 08:30 Прослушка Скачать торрент  

Раздачу пожалуйстаpiratbit.org



20-03-2017 15:12 Прослушка Скачать торрент  

ДАЙТЕ ПОЖАЛУЙСТА РАЗДАЧУ!)piratbit.org



22-08-2017 13:03 Прослушка Скачать торрент  

Есть кто на проводе? не могу скачать)- присоединяйтесь!!piratbit.org



    Дорогой пользователь! Огромная просьба, поблагодарите релизера, оцените раздачу и оставьте свои комментарий, если Вы скачали Прослушка через торрент бесплатно!
    Комментировать посты могут только пользователи прошедшие не сложную регистрацию
    Показать сообщения:    

    Прослушка через торрент
    Скачать бесплатно Прослушка
    Прослушка скачать торрент
    Прослушка смотреть онлайн
    Cкачать фильм Прослушка бесплатно
    Прослушка скачать торрент в хорошем качестве
    Прослушка смотреть онлайн бесплатно в хорошем качестве


    Вы не можете начинать темы
    Вы не можете отвечать на сообщения
    Вы не можете редактировать свои сообщения
    Вы не можете удалять свои сообщения
    Вы не можете голосовать в опросах
    Вы не можете прикреплять файлы к сообщениям
    Вы можете скачивать файлы