Наша группа ВК в очередной раз забанена мы уходим в Телеграм, присоединяйтесь!!!

Лицензия

30

iTunes

мы

iTunes

1

1 сезон

Чернобыль

iTunes

1+1

iTunes

Закатать в асфальт

8 сезон

Игра престолов

1 сезон

Ральф против интернета

ИГРА 18+

pack

ВАЖНО

!!Акция!!

Alien_RageХит недели

RePack

Resident Evil 21
pack

RePack

Metro:Exodus

!!Акция!!

Alien_Rage

RePack

fifa19

RePack

Assassins Creed: Odyssey

RePack

NEED FOR SPEED™ PAYBACK

3 сезон

9 сезон

Бесстыжие 9 сезон

Все сериалы

все сериалы на PB.wtf

RePack

FAR CRY 5
Ребята, катастрофически не хватает 2730р. для оплаты серверов за АПРЕЛЬ (всвязи с блокировками трафик упал в 3 раза), 1-2р., выручайте.
  

Бездна / The Deep (Питер Йетс) [1977 г., ужасы, триллер, детектив, приключения, BDRip] piratbit.org

Бездна через торрент piratbit.org

Размер: 2.05 GB | Добавлен: 7 лет 3 мес. назад | Торрент скачан:103 раза
Скачать  

29-01-2012 12:40 Бездна Скачать торрент  

Бездна / The DeepГод выпуска: 1977
Страна: США
Жанр: ужасы, триллер, детектив, приключения
Продолжительность: 02:04:30
Перевод: Профессиональный (полное дублирование) + Многоголосый закадровый

Режиссер: Питер Йетс
Сценарий: Питер Бенчли, Трэйси Кинэн Винн
Премьера в мире: 17 июня 1977



В ролях: Роберт Шоу, Жаклин Биссет, Ник Нолти, Луис Госсет мл., Эли Уоллах, Дик Энтони Уильямс, Эрл Мэйнард, Боб Майнор, Тедди Таккер, Роберт Тессьер

Описание: Супруги Гейл и Дэвид проводят отпуск на экзотическом бермудском острове. Во время подводной охоты им достается роскошная и опасная добыча: они находят затонувший испанский корабль, который набит несметными сокровищами. Искатели приключений и не подозревают, с чем им предстоит столкнуться в погоне за кладом. В конце концов, они оказываются на краю бездны, где любое неверное движение может стоить жизни.

Качество: BDRip
Формат: AVI
Видео кодек: XviD
Аудио кодек: AC3
Видео: 720x304 (2,35:1), 23,976 fps, 1954 Kbps, 0.372 bits/pixel
Аудио#1: 48.0 KHz, AC3 2.0, 192.00 Kbps (Дубляж)
Аудио#2: 48.0 KHz, AC3 2.0, 192.00 Kbps (Многоголосый закадровый)

&
Общее
Полное имя : D:\Роздачи\The Deep.1977.HQBDRip-PT.avi
Формат : AVI
Формат/Информация : Audio Video Interleave
Профиль формата : OpenDML
Размер файла : 2,05 Гбайт
Продолжительность : 2 ч. 4 м.
Общий поток : 2355 Кбит/сек
Режиссёр : Rulya74 [1080p]
Программа кодирования : VirtualDubModRus 1.5.10.2 (build 2542/release)
Библиотека кодирования : VirtualDubMod build 2542/release

Видео
Идентификатор : 0
Формат : MPEG-4 Visual
Профиль формата : Advanced Simple@L5
Параметр BVOP формата : 1
Параметр QPel формата : Нет
Параметр GMC формата : Без точки перехода
Параметр матрицы формата : Default (MPEG)
Идентификатор кодека : XVID
Идентификатор кодека/Подсказка : XviD
Продолжительность : 2 ч. 4 м.
Битрейт : 1954 Кбит/сек
Ширина : 720 пикселей
Высота : 304 пикселя
Соотношение сторон : 2,35:1
Частота кадров : 23,976 кадра/сек
Цветовое пространство : YUV
Субдискретизация насыщенности : 4:2:0
Битовая глубина : 8 бит
Тип развёртки : Прогрессивная
Метод сжатия : С потерями
Бит/(Пиксели*Кадры) : 0.372
Размер потока : 1,70 Гбайт (83%)
Библиотека кодирования : XviD 1.2.1 (UTC 2008-12-04)

Аудио #1
Идентификатор : 1
Формат : AC-3
Формат/Информация : Audio Coding 3
Профиль формата : Dolby Digital
Расширение режима : CM (complete main)
Идентификатор кодека : 2000
Продолжительность : 2 ч. 4 м.
Вид битрейта : Постоянный
Битрейт : 192 Кбит/сек
Каналы : 2 канала
Расположение каналов : Front: L R
Частота : 48,0 КГц
Битовая глубина : 16 бит
Метод сжатия : С потерями
Размер потока : 171 Мбайт (8%)
Выравнивание : Разделение по промежуткам
Продолжительность промежутка : 42 мс. (1,00 видеокадр)
Время предзагрузки промежутка : 500 мс.

Аудио #2
Идентификатор : 2
Формат : AC-3
Формат/Информация : Audio Coding 3
Профиль формата : Dolby Digital
Расширение режима : CM (complete main)
Идентификатор кодека : 2000
Продолжительность : 2 ч. 4 м.
Вид битрейта : Постоянный
Битрейт : 192 Кбит/сек
Каналы : 2 канала
Расположение каналов : Front: L R
Частота : 48,0 КГц
Битовая глубина : 16 бит
Метод сжатия : С потерями
Размер потока : 171 Мбайт (8%)
Выравнивание : Разделение по промежуткам
Продолжительность промежутка : 42 мс. (1,00 видеокадр)
Время предзагрузки промежутка : 500 мс.
piratbit.org



Скачать Бездна через торрент http://pic.kartinco.top/images/2011/zk61n3lh19.png Скачать фильм Бездна через торрент бесплантно в хорошем качестве Описание: Супруги Гейл и Дэвид проводят отпуск на экзотическом бермудском острове. Во время подводной охоты им достается роскошная и ... 10 10 3
Info! Золотая раздача, скачанное не засчитывается.
Торрент: Зарегистрирован [2012-01-29 12:40] · скачан: 103 раз
Статус: √ проверено
Размер: 2.05 GB
Как cкачать? Как скачать Бездна через торрент | qTorrent

% Раздел Тема Автор DL S | L
Фильмы [HD 720p, 1080p] (Хороший звук DUB, MVO) [ 14.75 GB ] Бездна / The Deep [1977 BDRip 1080p] DUB MVO 3xAVO Леонид Ильич Скачать
4 | 0
Фильмы [HD 720p, 1080p] (Хороший звук DUB, MVO) [ 9.47 GB ] На дне бездны / In Too Deep [1999 BDRip 1080p by msltel] 2 x DVO AVO msltel Скачать
1 | 0
Фильмы [HD 720p, 1080p] (Хороший звук DUB, MVO) [ 4.07 GB ] На дне бездны / In Too Deep [1999 BDRip 720p by msltel] 2 x DVO AVO msltel Скачать
1 | 0
National Geographic [ 533 MB ] Nat Geo Wild: Глубоководные гиганты / Giants of the Deep Blue [2018 документальный HDTVRip ] sergey82 Скачать
1 | 0
T Фильмы 2012 [ 1.63 GB ] Пучина / Бездна / The Deep [2012 WEB-DLRip Любительский двухголосый] coc900 Скачать
1 | 0
Зарубежные сериалы [ 13.29 GB ] Бездна / The Deep / Серия 1-5 [минисериал] [2010 BDRip ] NovaFiLM.TV lyokaa Скачать
1 | 0
Классика зарубежного кино [ 2.92 GB ] Бездна / The Deep [1977 BDRip - AVC] -=Cherry=- Скачать
1 | 0


>> Регистрируемся здесь <<






Отзывы и комментарии о схеме читаем и пишем здесь: ---> Отзывы и комментарии о схеме

Новые благодарочки в телеграм довольных пользователей:
скриншот   скриншот   скриншот   скриншот   скриншот

29-01-2012 12:45 Бездна Скачать торрент  

Отличный фильм.И качество достойное. Автору спасибо!piratbit.org



29-01-2012 12:48 Бездна Скачать торрент  

-=Cherry=-
Пожалуйста. Фильм действительно хороший, первый раз смотрел ещё при союзе.piratbit.org



    Дорогой пользователь! Огромная просьба, поблагодарите релизера, оцените раздачу и оставьте свои комментарий, если Вы скачали Бездна через торрент бесплатно! Внесите свою лепту в развитие PiratBit!
    Комментировать посты могут только пользователи прошедшие не сложную регистрацию
    Показать сообщения:    

    Бездна через торрент
    Скачать бесплатно Бездна
    Бездна скачать торрент
    Бездна смотреть онлайн
    Cкачать фильм Бездна бесплатно
    Бездна скачать торрент в хорошем качестве
    Бездна смотреть онлайн бесплатно в хорошем качестве


    Вы не можете начинать темы
    Вы не можете отвечать на сообщения
    Вы не можете редактировать свои сообщения
    Вы не можете удалять свои сообщения
    Вы не можете голосовать в опросах
    Вы не можете прикреплять файлы к сообщениям
    Вы можете скачивать файлы