Anonymous, добрый день, присоединяйтесь к нам в Telegram!, здесь всегда актуальный адрес сайта, оперативная поддержка и многое другое!

>

5.6

iTunes

7.4

iTunes

5.7

MVO

1

7.7

1 сезон

6.8

iTunes

7.3

1 сезон

13

6.7

1 сезон

8.3

RePack

30

ULTIMATE

pack

9.9

Лицензия

ВАЖНО

ИГРА 18+

pack

7.3

RePack

MK11

7.7

RePack

jed

7.8

RePack

fifa19

8.5

RePack

RDR2

RePack

NEED FOR SPEED™ PAYBACK

4 сезон

9 сезон

Бесстыжие 9 сезон

Все сериалы

все сериалы на PB.wtf

RePack

FAR CRY 5

Anonymous, добрый день, мы катастрофически не успеваем собрать деньги на оплату серверов, помогите нам пожалуйста 5,10,15р., для нас важна любая помощь . В качестве благодарности мы отключим Вам всю рекламу на сайте (укажите свой ник в строку Ваше имя)!

×
  
Magnet ссылка

Милдред Пирс / Mildred Pierce / Сезон: 1 / Серии: 1-5 (Полный сезон) (Тодд Хейнс) [2011, драма, BDRip 720p] MVO Домашний piratbit.org

Милдред Пирс через торрент piratbit.org

Качают: 1 [ 0 KB/s ]
Размер: 14.95 GB | Добавлен: 9 лет 8 мес. назад | Торрент скачан:5 раз
Смотреть онлайн Милдред Пирс | Скачать    Ребята, помогите собрать деньги на оплату серверов!!!

12-02-2012 11:36 Милдред Пирс Скачать торрент  

Милдред Пирс / Mildred Pierce
Год выпуска: 2011
Страна: США
Жанр: драма
Продолжительность: ~00:59:00
Перевод: Профессиональный (многоголосый, закадровый) (Домашний)
Субтитры: Русские субтитры на вырезанную сцену в 5-й серии(2 фразы)
| Мировой рейтинг IMDB: 7.8/10 (2,708)
Режиссер: Тодд Хейнс
Сценарий: Джеймс М. Кейн, Тодд Хейнс, Джон Рэймонд
В ролях: Кейт Уинслет, Гай Пирс, Морган Тернер, Ивэн Рэйчел Вуд, Куинн Маккоулган, Дарлен Вайолетт, Аннетт Арнольд, Марк Марголис, Пол Пилс, Мэйтели Вейсманн, Ивэн Томпсон и др.
Описание: Сериал из 5-ти серий о матери-одиночке и ее драматичной истории.

Милдред расстается с мужем и попала в ресторанный бизнес. Но ей суждено совершить ошибку — она выходит замуж за плейбоя, спускающего все ее деньги на ветер...
Похожие раздачи: Mildred Pierce
Качество: BDRip 720p
Формат: MKV
Видео кодек: H.26x
Аудио кодек Rus: AC3
Аудио кодек Eng: DTS
Видео: 1280×720 (16:9), 23.976 fps, 4802 kbps avg, 0.217 bit/pixel
Аудио Rus: 48 kHz, Dolby Digital 2.0 @ 192 kbps AC-3
Аудио Eng: 48 kHz, DTS 5.1 @ 1510 kbps

Монтаж и работа со звуком: zhbanochek, vadimdexter
Общее
Уникальный идентификатор : 238747507676782287784422278461600087610 (0xB39D18F0671573369D83E7BC6998BE3A)
Полное имя : F:\Раздачи\Раздачи\720p\Complete seasons\mildred.pierce.s01.bdrip.720.rus.eng.novafilm.tv\mildred.pierce.s01e01.bdrip.720.rus.eng.novafilm.tv.mkv
Формат : Matroska
Версия формата : Version 2
Размер файла : 2,73 Гбайт
Продолжительность : 59 м.
Общий поток : 6506 Кбит/сек
Дата кодирования : UTC 2012-02-12 00:08:18
Программа кодирования : mkvmerge v5.3.0 ('I could have danced') built on Feb 9 2012 10:38:07
Библиотека кодирования : libebml v1.2.3 + libmatroska v1.3.0

Видео
Идентификатор : 1
Формат : AVC
Формат/Информация : Advanced Video Codec
Профиль формата : High@L4.1
Параметр CABAC формата : Да
Параметр ReFrames формата : 5 кадров
Идентификатор кодека : V_MPEG4/ISO/AVC
Продолжительность : 59 м.
Битрейт : 4802 Кбит/сек
Ширина : 1280 пикселей
Высота : 720 пикселей
Соотношение сторон : 16:9
Частота кадров : 23,976 кадра/сек
Цветовое пространство : YUV
Субдискретизация насыщенности : 4:2:0
Битовая глубина : 8 бит
Тип развёртки : Прогрессивная
Бит/(Пиксели*Кадры) : 0.217
Размер потока : 1,96 Гбайт (72%)
Библиотека кодирования : x264 core 119 r2106 07efeb4
Настройки программы : cabac=1 / ref=5 / deblock=1:0:0 / analyse=0x3:0x113 / me=umh / subme=8 / psy=1 / psy_rd=1.00:0.00 / mixed_ref=1 / me_range=16 / chroma_me=1 / trellis=1 / 8x8dct=1 / cqm=0 / deadzone=21,11 / fast_pskip=1 / chroma_qp_offset=-2 / threads=12 / sliced_threads=0 / nr=0 / decimate=1 / interlaced=0 / bluray_compat=0 / constrained_intra=0 / bframes=3 / b_pyramid=2 / b_adapt=2 / b_bias=0 / direct=3 / weightb=1 / open_gop=0 / weightp=2 / keyint=240 / keyint_min=24 / scenecut=40 / intra_refresh=0 / rc_lookahead=50 / rc=2pass / mbtree=1 / bitrate=4802 / ratetol=1.0 / qcomp=0.60 / qpmin=0 / qpmax=69 / qpstep=4 / cplxblur=20.0 / qblur=0.5 / ip_ratio=1.40 / aq=1:1.00
Язык : English
Default : Нет
Forced : Нет

Аудио #1
Идентификатор : 2
Формат : AC-3
Формат/Информация : Audio Coding 3
Расширение режима : CM (complete main)
Идентификатор кодека : A_AC3
Продолжительность : 59 м.
Вид битрейта : Постоянный
Битрейт : 192 Кбит/сек
Каналы : 2 канала
Расположение каналов : Front: L R
Частота : 48,0 КГц
Битовая глубина : 16 бит
Метод сжатия : С потерями
Размер потока : 82,4 Мбайт (3%)
Язык : Russian
Default : Да
Forced : Нет

Аудио #2
Идентификатор : 3
Формат : DTS
Формат/Информация : Digital Theater Systems
Идентификатор кодека : A_DTS
Продолжительность : 59 м.
Вид битрейта : Постоянный
Битрейт : 1510 Кбит/сек
Каналы : 6 каналов
Расположение каналов : Front: L C R, Side: L R, LFE
Частота : 48,0 КГц
Битовая глубина : 24 бит
Метод сжатия : С потерями
Размер потока : 648 Мбайт (23%)
Язык : English
Default : Нет
Forced : Нет
Полный список номинаций и наград

Золотой глобус, 2012 год
Победитель (1):Лучшая актриса мини-сериала или фильма на ТВ (Кейт Уинслет)Номинации (3):Лучший актёр второго плана мини-сериала или фильма на ТВ (Гай Пирс)
Лучшая актриса второго плана мини-сериала или фильма на ТВ (Ивэн Рэйчел Вуд)
Лучший мини-сериал или фильм на ТВ

Эмми, 2011 год
Победитель :Outstanding Art Direction for a Miniseries or Movie
Ellen Christiansen (set decorator)
Peter Rogness (art director)
Mark Friedberg (production designer)

Outstanding Casting for a Miniseries, Movie or a Special
Laura Rosenthal (casting director)

Outstanding Lead Actress in a Miniseries or Movie
Kate Winslet

Outstanding Music Composition for a Miniseries, Movie or a Special (Original Dramatic Score)
Carter Burwell (music by)
For episode "Part Five".
Outstanding Supporting Actor in a Miniseries or Movie
Guy Pearce
piratbit.org



Скачать Милдред Пирс через торрент https://pic1.kartinco.top/images/2011/dm7an6aaoz.png Скачать, смотреть онлайн Милдред Пирс бесплантно в хорошем качестве Описание: Сериал из 5-ти серий о матери-одиночке и ее драматичной истории.Милдред расстается с мужем и попала в ресторанный бизнес. Но ей ... 5 10 1
Info! Золотая раздача, скачанное не засчитывается.
Торрент: Зарегистрирован [2012-02-12 11:36] · скачан: 5 раз
Статус: √ проверено
Размер: 14.95 GB
Как cкачать? Как скачать Милдред Пирс через торрент | UTorrent

28-11-2019 20:33  

Отключить всю рекламу на сайте

24-02-2012 19:36 Милдред Пирс Скачать торрент  

Спасибо, только добавь скорости, а то будем так качать до посинения.-)piratbit.org



    Дорогой пользователь! Огромная просьба, поблагодарите релизера, оцените раздачу и оставьте свои комментарий, если Вы скачали Милдред Пирс через торрент бесплатно!
    Комментировать посты могут только пользователи прошедшие не сложную регистрацию
    Показать сообщения:    

    Милдред Пирс через торрент
    Скачать бесплатно Милдред Пирс
    Милдред Пирс скачать торрент
    Милдред Пирс смотреть онлайн
    Cкачать фильм Милдред Пирс бесплатно
    Милдред Пирс скачать торрент в хорошем качестве
    Милдред Пирс смотреть онлайн бесплатно в хорошем качестве


    Вы не можете начинать темы
    Вы не можете отвечать на сообщения
    Вы не можете редактировать свои сообщения
    Вы не можете удалять свои сообщения
    Вы не можете голосовать в опросах
    Вы не можете прикреплять файлы к сообщениям
    Вы можете скачивать файлы