новый адрес
Мега распродажа FORZA HORIZON 4 ULTIMATE+ВСЕ DLC+ОНЛАЙН всего за 499р. 349 руб. (супер цена). Внимание количество ограничено!!!

iTunes

1+1

iTunes

мы

iTunes

1

iTunes

Чернобыль

iTunes

Ральф против интернета

Лицензия

ПШазам

Лицензия

Игра престолов

Лицензия

30
pack

ВАЖНО

!!Акция!!

Alien_RageХит недели

RePack

Resident Evil 21

ИГРА 18+

pack

RePack

Metro:Exodus

!!Акция!!

Alien_Rage

RePack

fifa19

RePack

Assassins Creed: Odyssey

RePack

NEED FOR SPEED™ PAYBACK

3 сезон

9 сезон

Бесстыжие 9 сезон

Все сериалы

все сериалы на PB.wtf

RePack

FAR CRY 5
Ребята, катастрофически не хватает 1900р. для оплаты серверов за Октябрь (всвязи с блокировками трафик упал в 3 раза), 1-2р., выручайте.
  

Вторая мировая война в 3D / World War II in 3D [2011 г., документальный/BDRip 1080/Вертикальная анаморфная стереопара] piratbit.org

Вторая мировая война в 3D через торрент piratbit.org

Размер: 3.75 GB | Добавлен: 7 лет 9 мес. назад | Торрент скачан:1249 раз
Скачать  

13-02-2012 09:26 Вторая мировая война в 3D Скачать торрент  

Вторая мировая война в 3D / World War II in 3D

Год выпуска: 2011
Страна: США
Жанр: документальный
Продолжительность: 00:44:00
Перевод: Одноголосый закадровый

Над фильмом работали:
Луис Тарантино, Дуглас Кохен, Габриэль Ротелло, Свен Биркемайер, Тим Эванс, Кристина Хансен,
Кевин Браун,Дион Лабриола, Мэнни Мадла, Том Уилкинсон, Том Коллинс, Джоэл Франклин и др.

В ролях: Гитлер,Сталин,немцы и наши идр.

Описание:
Документальный фильм Вторая мировая война в 3D рассказывает историю 2-й мировой войны от ее развязывания нацистской Германией и развертке по всей Европе до контрнаступления Союзников и падения нацистской Германии. Впервые, вы увидите, драматические моменты Второй мировой войны в 3D снятые на стереограф, которые до сих пор были закрыты в секретных архивах. Этот грандиозный архив 3D фотографий включает в себя снимки разведки Союзников, коллекцию изображений и документов о взлете и падение Третьего Рейха, фотографии, тайно сделанные в оккупированной Франции, также имеется реальная 3D кинопленка, снятая нацистами в 1943 году. Фильм создает абсолютно реалистичную трехмерную картину крупнейшего кровопролитного конфликта в истории.

Доп.информация:
За перевод и озвучивание спасибо HDclub и сервису "Озвучивание". Спонсоры: byurger, ork2010, sim2rtx, DobermanHD, levanevski, maxys, a1ex11, same555, kimi, Atlantis

Качество: BDRip
Формат: MKV
Формат 3D:Anamorph OverUnder / Вертикальная анаморфная стереопара
Видео кодек: x264
Аудио кодек: AC3
Видео: AVC, h264, 1920x1080, 23.976 кадр/сек, 10,7 Мбит/сек
Аудио1:русский; AC3, 6 каналов, 640 Кбит/сек, 48,0 КГц (Одноголосый закадровый)
Аудио2: английский; AC3, 6 каналов, 640 Кбит/сек, 48,0 КГц (Оригинал)

Релиз от: elephant
Общее
Уникальный идентификатор : 186168609221024753198551356357440873546 (0x8C0EC51980587DE0AC0D76F481E2A44A)
Полное имя : M:\3D-RuGroup\WorldWarII.3D.2011.BD3DRip.Half.OU.x264.AC3.Eng.mkv
Формат : Matroska
Версия формата : Version 2
Размер файла : 3,55 Гбайт
Продолжительность : 44 м.
Общий поток : 11,5 Мбит/сек
Название фильма : WorldWarII.3D.2011.BD3DRip.Half.OU.x264.AC3.Eng
Дата кодирования : UTC 2012-01-18 17:50:11
Программа кодирования : mkvmerge v3.4.0 ('Rapunzel') сборка от May 15 2010 09:38:20
Библиотека кодирования : libebml v0.8.0 + libmatroska v0.9.0

Видео
Идентификатор : 1
Формат : AVC
Формат/Информация : Advanced Video Codec
Профиль формата : High@L4.0
Параметр CABAC формата : Да
Параметр ReFrames формата : 4 кадра
Идентификатор кодека : V_MPEG4/ISO/AVC
Продолжительность : 44 м.
Битрейт : 10,7 Мбит/сек
Ширина : 1920 пикселей
Высота : 1080 пикселей
Соотношение сторон : 16:9
Частота кадров : 23,976 кадра/сек
Цветовое пространство : YUV
Субдискретизация насыщенности : 4:2:0
Битовая глубина : 8 бит
Тип развёртки : Прогрессивная
Бит/(Пиксели*Кадры) : 0.214
Размер потока : 3,28 Гбайт (92%)
Заголовок : Rip by itsamna (aka elephant AnTo}{@)
Библиотека кодирования : x264 core 116 r2074 2641b9e
Настройки программы : cabac=1 / ref=4 / deblock=1:-3:-3 / analyse=0x3:0x133 / me=umh / subme=9 / psy=1 / psy_rd=1.00:0.15 / mixed_ref=1 / me_range=24 / chroma_me=1 / trellis=2 / 8x8dct=1 / cqm=0 / deadzone=21,11 / fast_pskip=0 / chroma_qp_offset=-3 / threads=3 / sliced_threads=0 / nr=0 / decimate=1 / interlaced=0 / bluray_compat=0 / constrained_intra=0 / bframes=6 / b_pyramid=2 / b_adapt=2 / b_bias=0 / direct=3 / weightb=1 / open_gop=0 / weightp=2 / keyint=250 / keyint_min=23 / scenecut=40 / intra_refresh=0 / rc_lookahead=40 / rc=crf / mbtree=1 / crf=18.0 / qcomp=0.70 / qpmin=10 / qpmax=69 / qpstep=4 / ip_ratio=1.40 / aq=1:0.70

Аудио
Идентификатор : 2
Формат : AC-3
Формат/Информация : Audio Coding 3
Расширение режима : CM (complete main)
Идентификатор кодека : A_AC3
Продолжительность : 44 м.
Вид битрейта : Постоянный
Битрейт : 640 Кбит/сек
Каналы : 6 каналов
Расположение каналов : Front: L C R, Side: L R, LFE
Частота : 48,0 КГц
Битовая глубина : 16 бит
Метод сжатия : С потерями
Размер потока : 202 Мбайт (6%)
Заголовок : Original AC3 5.1 640 Kbps
Язык : English

Меню
00:00:00.000 : :Powerful imagery
00:13:09.038 : :Triumphant Austrian tour
00:19:39.220 : :Record of destruction
00:27:59.469 : :Unique footage
00:35:14.654 : :Tragic consequences :)
piratbit.org



Скачать Вторая мировая война в 3D через торрент http://pic.kartinco.top/images/2011/s8mt4s5gbu.jpg Скачать фильм Вторая мировая война в 3D через торрент бесплантно в хорошем качестве Описание:Документальный фильм Вторая мировая война в 3D рассказывает историю 2-й мировой войны от ее развязывания нацистской Германией и ... 9.9 10 14
Info! Золотая раздача, скачанное не засчитывается.
Торрент: Зарегистрирован [2012-02-13 19:56] · скачан: 1 249 раз
Статус: √ проверено
Размер: 3.75 GB
Как cкачать? Как скачать Вторая мировая война в 3D через торрент | qTorrent



Последний раз редактировалось: marik05 (2012-02-13 19:56), всего редактировалось 4 раз(а)


>> Регистрируемся здесь <<






Отзывы и комментарии о схеме читаем и пишем здесь: ---> Отзывы и комментарии о схеме

Новые благодарочки в телеграм довольных пользователей:
скриншот   скриншот   скриншот   скриншот   скриншот

13-02-2012 14:15 Вторая мировая война в 3D Скачать торрент  

ну нахрена он без перевода нужен???piratbit.org



13-02-2012 15:33 Вторая мировая война в 3D Скачать торрент  

reonic писал(а):

ну нахрена он без перевода нужен???

Сегодня перезалью торрент с переводом от HDclub и сервиса "Озвучивание"piratbit.org



13-02-2012 17:32 Вторая мировая война в 3D Скачать торрент  

Малость наберитесь терпенияpiratbit.org



03-02-2013 10:45 Вторая мировая война в 3D Скачать торрент  

Теперь с переводом?piratbit.org



    Дорогой пользователь! Огромная просьба, поблагодарите релизера, оцените раздачу и оставьте свои комментарий, если Вы скачали Вторая мировая война в 3D через торрент бесплатно! Внесите свою лепту в развитие PiratBit!
    Комментировать посты могут только пользователи прошедшие не сложную регистрацию
    Показать сообщения:    

    Вторая мировая война в 3D через торрент
    Скачать бесплатно Вторая мировая война в 3D
    Вторая мировая война в 3D скачать торрент
    Вторая мировая война в 3D смотреть онлайн
    Cкачать фильм Вторая мировая война в 3D бесплатно
    Вторая мировая война в 3D скачать торрент в хорошем качестве
    Вторая мировая война в 3D смотреть онлайн бесплатно в хорошем качестве


    Вы не можете начинать темы
    Вы не можете отвечать на сообщения
    Вы не можете редактировать свои сообщения
    Вы не можете удалять свои сообщения
    Вы не можете голосовать в опросах
    Вы не можете прикреплять файлы к сообщениям
    Вы можете скачивать файлы