Anonymous, добрый вечер, присоединяйтесь к нам в Telegram!, здесь всегда актуальный адрес сайта, оперативная поддержка и многое другое!

>

5.5

iTunes

7.4

iTunes

7.9

iTunes

1

7.7

1 сезон

6.8

iTunes

7.3

1 сезон

13

6.7

1 сезон

8.3

RePack

30

ULTIMATE

pack

9.9

Лицензия

ВАЖНО

ИГРА 18+

pack

7.3

RePack

MK11

7.7

RePack

jed

7.8

RePack

fifa19

8.5

RePack

RDR2

RePack

NEED FOR SPEED™ PAYBACK

4 сезон

9 сезон

Бесстыжие 9 сезон

Все сериалы

все сериалы на PB.wtf

RePack

FAR CRY 5

Anonymous, добрый вечер, мы катастрофически не успеваем собрать деньги на оплату серверов, помогите нам пожалуйста 5,10,15р., для нас важна любая помощь . В качестве благодарности мы отключим Вам всю рекламу на сайте (укажите свой ник в строку Ваше имя)!

×
  
Magnet ссылка

Фирма / The Firm / Сезон: 1 / Серия: 1-2 (22) (Холли Дэйл) [2012, драма, боевик, WEB-DLRip] (SET) piratbit.org

Фирма через торрент piratbit.org

Размер: 800 MB | Добавлен: 9 лет 8 мес. назад | Торрент скачан:54 раза
Смотреть онлайн Фирма | Скачать    Ребята, помогите собрать деньги на оплату серверов!!!

19-02-2012 21:46 Фирма Скачать торрент  

Фирма / The Firm
Год выпуска: 2012
Страна: США
Жанр: боевик, драма
Продолжительность: ~00:45:00
Перевод: Профессиональный (многоголосый, закадровый) (SET)
Субтитры: Отсутствуют

Режиссер: Холли Дэйл
В ролях: аташа Калис, Тришиа Хелфер, Джульетт Льюис, Джош Лукас, Шон Мажумдер, Молли Паркер, Каллум Кит Ренни, Паулино Нюнс, Эри Коэн, Дэвид Ричмонд-Пек и др.
Описание: Этот сериал – продолжение нашумевшей в 1993г. одноименной драмы, в которой молодой юрист, выпускник Гарварда Митч Макдири обнаруживает, что престижная фирма, где он недавно начал работать, прикрывает чикагскую мафию.

10 лет спустя Митч с семьей наконец-то выходят из-под прикрытия Федеральной программы защиты свидетелей. Они намерены вернуть свой прежний статус, положение в обществе и обеспечить себе и детям достойное будущее, однако вскоре понимают, что прежняя угроза висит над ними Дамокловым мечом…
Похожие раздачи: The firm
Качество: WEB-DLRip
Формат: AVI
Видео кодек: XviD
Аудио кодек: MP3
Видео: 624×352 (16:9), 23.976 fps, XviD build 64 ~1000 kbps avg, 0.199 bit/pixel
Аудио Rus: 48 kHz, MPEG Layer 3, 2 ch, ~128.00 kbps avg
Аудио Eng: 48 kHz, MPEG Layer 3, 2 ch, ~128.00 kbps avg

Подготовка видео: vadimdexter
Монтаж и работа со звуком: zhbanochek, vadimdexter




Эпизод 1
Pilot 8 января 2012
Эпизод 2
Chapter Two 8 января 2012
Эпизод 3
Chapter Three 12 января 2012
Эпизод 4
Chapter Four 19 января 2012
Эпизод 5
Chapter Five 26 января 2012
Эпизод 6
Chapter Six 2 февраля 2012
Эпизод 7
Chapter Seven 9 февраля 2012
Эпизод 8
Chapter Eight 16 февраля 2012
Эпизод 9
Эпизод #1.9 23 февраля 2012
Эпизод 10
Эпизод #1.10 10 марта 2012
Эпизод 11
Эпизод #1.11 25 марта 2012
Эпизод 12
Эпизод #1.12 1 апреля 2012
Эпизод 13
Эпизод #1.13 8 апреля 2012
Эпизод 14
Эпизод #1.14 ---
Эпизод 15
Эпизод #1.15 ---
Эпизод 16
Эпизод #1.16 ---
Эпизод 17
Эпизод #1.17 ---
Эпизод 18
Эпизод #1.18 ---
Эпизод 19
Эпизод #1.19 ---
Эпизод 20
Эпизод #1.20 ---
Эпизод 21
Эпизод #1.21 ---
Эпизод 22
Эпизод #1.22 ---
Общее
Полное имя : F:\Раздачи\Раздачи\the.firm.s01e01e02.web-dlrip.rus.eng.novafim.tv.avi
Формат : AVI
Формат/Информация : Audio Video Interleave
Размер файла : 800 Мбайт
Продолжительность : 1 ч. 24 м.
Общий поток : 1317 Кбит/сек
Программа кодирования : VirtualDubMod 1.5.10.2 (build 2540/release)
Библиотека кодирования : VirtualDubMod build 2540/release

Видео
Идентификатор : 0
Формат : MPEG-4 Visual
Профиль формата : Advanced Simple@L5
Параметр BVOP формата : 1
Параметр QPel формата : Нет
Параметр GMC формата : Без точки перехода
Параметр матрицы формата : Default (MPEG)
Идентификатор кодека : XVID
Идентификатор кодека/Подсказка : XviD
Продолжительность : 1 ч. 24 м.
Битрейт : 1047 Кбит/сек
Ширина : 624 пикселя
Высота : 352 пикселя
Соотношение сторон : 16:9
Частота кадров : 23,976 кадра/сек
Цветовое пространство : YUV
Субдискретизация насыщенности : 4:2:0
Битовая глубина : 8 бит
Тип развёртки : Прогрессивная
Метод сжатия : С потерями
Бит/(Пиксели*Кадры) : 0.199
Размер потока : 636 Мбайт (80%)
Библиотека кодирования : XviD 64

Аудио #1
Идентификатор : 1
Формат : MPEG Audio
Версия формата : Version 1
Профиль формата : Layer 3
Режим : Joint stereo
Расширение режима : MS Stereo
Идентификатор кодека : 55
Идентификатор кодека/Подсказка : MP3
Продолжительность : 1 ч. 24 м.
Вид битрейта : Постоянный
Битрейт : 128 Кбит/сек
Каналы : 2 канала
Частота : 48,0 КГц
Метод сжатия : С потерями
Размер потока : 77,7 Мбайт (10%)
Выравнивание : Соединение по промежуткам
Продолжительность промежутка : 42 мс. (1,00 видеокадр)
Время предзагрузки промежутка : 504 мс.

Аудио #2
Идентификатор : 2
Формат : MPEG Audio
Версия формата : Version 1
Профиль формата : Layer 3
Режим : Joint stereo
Расширение режима : MS Stereo
Идентификатор кодека : 55
Идентификатор кодека/Подсказка : MP3
Продолжительность : 1 ч. 24 м.
Вид битрейта : Постоянный
Битрейт : 128 Кбит/сек
Каналы : 2 канала
Частота : 48,0 КГц
Метод сжатия : С потерями
Размер потока : 77,7 Мбайт (10%)
Выравнивание : Соединение по промежуткам
Продолжительность промежутка : 42 мс. (1,00 видеокадр)
Время предзагрузки промежутка : 504 мс.

Внимание! Раздача ведётся путём добавления новых серий; при каждом добавлении создётся новый торрент. Чтобы начать докачку новой серии, пользователям необходимо сделать следующее:
(1) остановить скачивание,
(2) удалить старый торрент у себя из клиента (старые серии удалять не надо),
(3) скачать новый торрент и запустить его у себя в клиенте вместо старого, при этом указать клиенту путь в старую папку куда и должно происходить скачивание новых серий.

Ваш клиент при этом должен произвести хеширование (проверку) старой папки (если не производит сам - помогите ему сделать это), и будет докачивать только те серии которых у вас ещё нет. Старые серии при этом не удаляются, а продолжают раздаваться!

Eсли вы уже удалили старые серии, то предотвратить повторную закачку старых серий можно, отжав галочку в соответсвующих местах при запуске нового торрента. По возможности, желательно не удалять старые серии как можно дольше чтобы релизёр не столько продолжал раздавать старые серии, а смог сконцентрироваться на новых.
piratbit.org



Скачать Фирма через торрент https://pic1.kartinco.top/images/2011/nfyyo4u21s.jpg Скачать, смотреть онлайн Фирма бесплантно в хорошем качестве Описание: Этот сериал – продолжение нашумевшей в 1993г. одноименной драмы, в которой молодой юрист, выпускник Гарварда Митч Макдири ... 4.2 10 5
Info! Золотая раздача, скачанное не засчитывается.
Торрент: Зарегистрирован [2012-02-19 21:46] · скачан: 54 раз
Статус: √ проверено
Размер: 800 MB
Как cкачать? Как скачать Фирма через торрент | UTorrent

28-11-2019 20:33  

Отключить всю рекламу на сайте

    Дорогой пользователь! Огромная просьба, поблагодарите релизера, оцените раздачу и оставьте свои комментарий, если Вы скачали Фирма через торрент бесплатно!
    Комментировать посты могут только пользователи прошедшие не сложную регистрацию
    Показать сообщения:    

    Фирма через торрент
    Скачать бесплатно Фирма
    Фирма скачать торрент
    Фирма смотреть онлайн
    Cкачать фильм Фирма бесплатно
    Фирма скачать торрент в хорошем качестве
    Фирма смотреть онлайн бесплатно в хорошем качестве


    Вы не можете начинать темы
    Вы не можете отвечать на сообщения
    Вы не можете редактировать свои сообщения
    Вы не можете удалять свои сообщения
    Вы не можете голосовать в опросах
    Вы не можете прикреплять файлы к сообщениям
    Вы можете скачивать файлы