Ссылка на приватное зеркало нашего сайта всего за 1$. Внимание количество ограничено!!!

2 сезон

iTunes

iTunes

1

iTunes

iTunes

iTunes

WEBRip

iTunes

30
pack

Вам бонус

ВАЖНО

!!Акция!!

Alien_RageХит недели

RePack

Horizon Zero Dawn

ИГРА 18+

pack

RePack

jed

!!Акция!!

Alien_Rage

RePack

fifa19

RePack

Assassins Creed: Odyssey

RePack

NEED FOR SPEED™ PAYBACK

4 сезон

9 сезон

Бесстыжие 9 сезон

Все сериалы

все сериалы на PB.wtf

RePack

FAR CRY 5
  

Воздух, которым я дышу / The Air I Breathe (Джихо Ли) [2007 г., триллер, драма, криминал, BDRip] piratbit.org

Воздух, которым я дышу через торрент piratbit.org

Размер: 1.36 GB | Добавлен: 8 лет 7 мес. назад | Торрент скачан:60 раз
Скачать  

22-02-2012 16:31 Воздух, которым я дышу Скачать торрент  

Воздух, которым я дышу / The Air I Breathe

Год выпуска: 2007
Страна: США, Мексика
Жанр: триллер, драма, криминал
Продолжительность: 01:35:07
Перевод: Профессиональный (многоголосый, закадровый)

Режиссер: Джихо Ли
Сценарий: Джихо Ли, Боб ДеРоса
Премьера в мире: 8 февраля 2007



В ролях: Кевин Бэйкон, Брендан Фрейзер, Сара Мишель Геллар, Эмиль Хирш, Форест Уитейкер, Жюли Дельпи, Энди Гарсиа, Кларк Грегг, Эмиль Хирш, Келли Ху, Эван Парк ...

Описание: Основанная на старинной китайской пословице криминальная драма рассказывает четыре человеческие истории, выражающие счастье, печаль, наслаждение и любовь. Счастье — в истории духовно опустошенного банкира. Потеряв все, он решается на ограбление банка и неожиданно находит себя. Печаль и наслаждение — в рассказах о поп-певице, находящейся на пике карьеры и бандите, способном предвидеть будущее. История врача, отчаянно старающегося спасти человеческую жизнь, выражает любовь.

Качество: BDRip
Формат: AVI
Видео кодек: XviD
Аудио кодек: AC3
Видео: 720x304 (2,35:1), 23.976 fps, 1651 kbps, 0.315 bit/pixel
Аудио: 48 kHz, AC3 5.1, 384.00 kbps (Русский)

&
Общее
Полное имя : D:\Download\The Air I Breathe.2007.HQBDRip-PT.avi
Формат : AVI
Формат/Информация : Audio Video Interleave
Размер файла : 1,36 Гбайт
Продолжительность : 1 ч. 35 м.
Общий поток : 2044 Кбит/сек
Название фильма : Воздух, которым я дышу / The Air I Breathe (2007) BDRip
Режиссёр : Rulya74 [1080p]
Программа кодирования : VirtualDubModRus 1.5.10.2 (build 2542/release)
Библиотека кодирования : VirtualDubMod build 2542/release

Видео
Идентификатор : 0
Формат : MPEG-4 Visual
Профиль формата : Advanced Simple@L5
Параметр BVOP формата : 1
Параметр QPel формата : Нет
Параметр GMC формата : Без точки перехода
Параметр матрицы формата : Default (MPEG)
Идентификатор кодека : XVID
Идентификатор кодека/Подсказка : XviD
Продолжительность : 1 ч. 35 м.
Битрейт : 1651 Кбит/сек
Ширина : 720 пикселей
Высота : 304 пикселя
Соотношение сторон : 2,35:1
Частота кадров : 23,976 кадра/сек
Цветовое пространство : YUV
Субдискретизация насыщенности : 4:2:0
Битовая глубина : 8 бит
Тип развёртки : Прогрессивная
Метод сжатия : С потерями
Бит/(Пиксели*Кадры) : 0.315
Размер потока : 1,10 Гбайт (81%)
Библиотека кодирования : XviD 1.2.1 (UTC 2008-12-04)

Аудио
Идентификатор : 1
Формат : AC-3
Формат/Информация : Audio Coding 3
Расширение режима : CM (complete main)
Идентификатор кодека : 2000
Продолжительность : 1 ч. 35 м.
Вид битрейта : Постоянный
Битрейт : 384 Кбит/сек
Каналы : 6 каналов
Расположение каналов : Front: L C R, Side: L R, LFE
Частота : 48,0 КГц
Битовая глубина : 16 бит
Метод сжатия : С потерями
Задержка видео : 100 мс.
Размер потока : 261 Мбайт (19%)
Выравнивание : Разделение по промежуткам
Продолжительность промежутка : 42 мс. (1,00 видеокадр)
Время предзагрузки промежутка : 500 мс.
piratbit.org



Скачать Воздух, которым я дышу через торрент http://i30.fastpic.ru/big/2012/0222/92/c3cc7ebf2fb75f1cb73351ced6c01e92.png Скачать фильм Воздух, которым я дышу через торрент бесплантно в хорошем качестве Описание: Основанная на старинной китайской пословице криминальная драма рассказывает четыре человеческие истории, выражающие счастье, ... 4.6 10 7
Info! Золотая раздача, скачанное не засчитывается.
Торрент: Зарегистрирован [2012-02-22 16:32] · скачан: 60 раз
Статус: √ проверено
Размер: 1.36 GB
Как cкачать? Как скачать Воздух, которым я дышу через торрент | qTorrent

% Раздел Тема Автор DL S | L
Фильмы 2006-2008 [ 1.44 GB ] Воздух которым я дышу / The Air I Breathe [2007 HDRip] diletant Скачать
1 | 0

28-11-2019 20:33  

Отключить всю рекламу на сайте

26-02-2012 23:46 Воздух, которым я дышу Скачать торрент  

Нудная хрень. Откуда такой рейтинг и лестные отзывы на кинопоиске не понимаю, короче депресуха с суицидальным уклоном)piratbit.org



    Дорогой пользователь! Огромная просьба, поблагодарите релизера, оцените раздачу и оставьте свои комментарий, если Вы скачали Воздух, которым я дышу через торрент бесплатно! Внесите свою лепту в развитие PiratBit!
    Комментировать посты могут только пользователи прошедшие не сложную регистрацию
    Показать сообщения:    

    Воздух, которым я дышу через торрент
    Скачать бесплатно Воздух, которым я дышу
    Воздух, которым я дышу скачать торрент
    Воздух, которым я дышу смотреть онлайн
    Cкачать фильм Воздух, которым я дышу бесплатно
    Воздух, которым я дышу скачать торрент в хорошем качестве
    Воздух, которым я дышу смотреть онлайн бесплатно в хорошем качестве


    Вы не можете начинать темы
    Вы не можете отвечать на сообщения
    Вы не можете редактировать свои сообщения
    Вы не можете удалять свои сообщения
    Вы не можете голосовать в опросах
    Вы не можете прикреплять файлы к сообщениям
    Вы можете скачивать файлы