Marvel's Avengers Deluxe Edition (супер цена) 159р. Внимание количество ограничено!!!

2 сезон

iTunes

iTunes

1

iTunes

iTunes

iTunes

WEBRip

iTunes

30
pack

Новость дня

ВАЖНО

!!Акция!!

Alien_RageХит недели

RePack

Horizon Zero Dawn

ИГРА 18+

pack

RePack

jed

!!Акция!!

Alien_Rage

RePack

fifa19

RePack

Assassins Creed: Odyssey

RePack

NEED FOR SPEED™ PAYBACK

4 сезон

9 сезон

Бесстыжие 9 сезон

Все сериалы

все сериалы на PB.wtf

RePack

FAR CRY 5
  

Поезд на Дарджилинг. Отчаянные путешественники / The Darjeeling Limited (Уэс Андерсон) [2007 г., драма, комедия, приключения, BDRip] piratbit.org

Поезд на Дарджилинг. Отчаянные путешественники через торрент piratbit.org

Размер: 1.36 GB | Добавлен: 8 лет 6 мес. назад | Торрент скачан:141 раз
Скачать  

28-02-2012 18:35 Поезд на Дарджилинг. Отчаянные путешественники Скачать торрент  

Поезд на Дарджилинг. Отчаянные путешественники / The Darjeeling Limited

Год выпуска: 2007
Страна: США
Жанр: драма, комедия, приключения
Продолжительность: 01:31:46
Перевод: Профессиональный (полное дублирование)

Режиссер: Уэс Андерсон
Сценарий: Уэс Андерсон, Роман Коппола, Джейсон Шварцман
Премьера в мире: 3 сентября 2007



В ролях: Оуэн Уилсон, Эдриан Броуди, Джейсон Шварцман, Амара Каран, Уоллес Володарски, Варис Ахлувалиа, Ирфан Кхан, Барбет Шрёдер, Камилла Разерфорд, Билл Мюррэй, Натали Портман

Описание: Три придурковатых братца, которые не разговаривали друг с другом целый год после смерти отца, оказываются в поезде, едущем через Индию. Здесь они оказались, вняв зову старшего из них воссоединиться в путешествии, которое должно помочь им понять и обрести себя, восстановив ослабшие семейные узы.

Впрочем, вскоре сие благое действо уходит с нужного курса: недоверчивые родственники начинают переругиваться и пытаться драться, в результате чего оказываются высаженными посреди пустыни. И, конечно, это далеко не все неприятности, которые ждут их, особенно если знать, что истинная цель путешествия, затеянного искателем духовного равновесия, несколько иная, нежели он рассказывал братьям.

Качество: BDRip
Формат: AVI
Видео кодек: XviD
Аудио кодек: AC3
Видео: 720х304 (2.35:1), 23.976 fps, 1724 kbps, 0.328 bit/pixel
Аудио: 48 kHz, AC3, 3/2 (L,C,R,l,r) + LFE ch, 384.00 kbps

&
Общее
Полное имя : D:\Роздачи\The Darjeeling Limited.2007.HQBDRip-PT.avi
Формат : AVI
Формат/Информация : Audio Video Interleave
Размер файла : 1,36 Гбайт
Продолжительность : 1 ч. 31 м.
Общий поток : 2117 Кбит/сек
Название фильма : Поезд на Дарджилинг (Отчаянные путешественники) / The Darjeeling Limited (2007) BDRip
Режиссёр : Rulya74 [1080p BD-Remux]
Программа кодирования : VirtualDubModRus 1.5.10.2 (build 2542/release)
Библиотека кодирования : VirtualDubMod build 2542/release

Видео
Идентификатор : 0
Формат : MPEG-4 Visual
Профиль формата : Advanced Simple@L5
Параметр BVOP формата : 1
Параметр QPel формата : Нет
Параметр GMC формата : Без точки перехода
Параметр матрицы формата : Default (MPEG)
Идентификатор кодека : XVID
Идентификатор кодека/Подсказка : XviD
Продолжительность : 1 ч. 31 м.
Битрейт : 1724 Кбит/сек
Ширина : 720 пикселей
Высота : 304 пикселя
Соотношение сторон : 2,35:1
Частота кадров : 23,976 кадра/сек
Цветовое пространство : YUV
Субдискретизация насыщенности : 4:2:0
Битовая глубина : 8 бит
Тип развёртки : Прогрессивная
Метод сжатия : С потерями
Бит/(Пиксели*Кадры) : 0.328
Размер потока : 1,10 Гбайт (81%)
Библиотека кодирования : XviD 1.2.1 (UTC 2008-12-04)

Аудио
Идентификатор : 1
Формат : AC-3
Формат/Информация : Audio Coding 3
Расширение режима : CM (complete main)
Идентификатор кодека : 2000
Продолжительность : 1 ч. 31 м.
Вид битрейта : Постоянный
Битрейт : 384 Кбит/сек
Каналы : 6 каналов
Расположение каналов : Front: L C R, Side: L R, LFE
Частота : 48,0 КГц
Битовая глубина : 16 бит
Метод сжатия : С потерями
Размер потока : 252 Мбайт (18%)
Выравнивание : Разделение по промежуткам
Продолжительность промежутка : 42 мс. (1,00 видеокадр)
Время предзагрузки промежутка : 500 мс.
piratbit.org



Скачать Поезд на Дарджилинг. Отчаянные путешественники через торрент http://pic.kartinco.top/images/2011/9i3nkle1yp.png Скачать фильм Поезд на Дарджилинг. Отчаянные путешественники через торрент бесплантно в хорошем качестве Описание: Три придурковатых братца, которые не разговаривали друг с другом целый год после смерти отца, оказываются в поезде, едущем через ... 10 10 1
Info! Золотая раздача, скачанное не засчитывается.
Торрент: Зарегистрирован [2012-02-28 18:35] · скачан: 141 раз
Статус: √ проверено
Размер: 1.36 GB
Как cкачать? Как скачать Поезд на Дарджилинг. Отчаянные путешественники через торрент | qTorrent

28-11-2019 20:33  

Отключить всю рекламу на сайте

29-02-2012 09:37 Поезд на Дарджилинг. Отчаянные путешественники Скачать торрент  

Хороший фильм. Спасибо.piratbit.org



    Дорогой пользователь! Огромная просьба, поблагодарите релизера, оцените раздачу и оставьте свои комментарий, если Вы скачали Поезд на Дарджилинг. Отчаянные путешественники через торрент бесплатно! Внесите свою лепту в развитие PiratBit!
    Комментировать посты могут только пользователи прошедшие не сложную регистрацию
    Показать сообщения:    

    Поезд на Дарджилинг. Отчаянные путешественники через торрент
    Скачать бесплатно Поезд на Дарджилинг. Отчаянные путешественники
    Поезд на Дарджилинг. Отчаянные путешественники скачать торрент
    Поезд на Дарджилинг. Отчаянные путешественники смотреть онлайн
    Cкачать фильм Поезд на Дарджилинг. Отчаянные путешественники бесплатно
    Поезд на Дарджилинг. Отчаянные путешественники скачать торрент в хорошем качестве
    Поезд на Дарджилинг. Отчаянные путешественники смотреть онлайн бесплатно в хорошем качестве


    Вы не можете начинать темы
    Вы не можете отвечать на сообщения
    Вы не можете редактировать свои сообщения
    Вы не можете удалять свои сообщения
    Вы не можете голосовать в опросах
    Вы не можете прикреплять файлы к сообщениям
    Вы можете скачивать файлы